<?xml version="1.0" standalone="no"?>
<!DOCTYPE svg PUBLIC "-//W3C//DTD SVG 1.1//EN" "http://www.w3.org/Graphics/SVG/1.1/DTD/svg11.dtd" >
<svg xmlns="http://www.w3.org/2000/svg">
<metadata>Generated by IcoMoon</metadata>
<defs>
<font id="conftool" horiz-adv-x="1024">
<font-face units-per-em="1024" ascent="960" descent="-64" />
<missing-glyph horiz-adv-x="1024" />
<glyph unicode="&#x20;" horiz-adv-x="512" d="" />
<glyph unicode="&#xe900;" glyph-name="address-card" horiz-adv-x="1152" d="M1024 908.8h-896c-70.6 0-128-57.4-128-128v-640c0-70.6 57.4-128 128-128h896c70.6 0 128 57.4 128 128v640c0 70.6-57.4 128-128 128zM1088 140.8c0-35.2-28.8-64-64-64h-896c-35.2 0-64 28.8-64 64v640c0 35.2 28.8 64 64 64h896c35.2 0 64-28.8 64-64zM944 396.8h-224c-8.8 0-16-7.2-16-16v-32c0-8.8 7.2-16 16-16h224c8.8 0 16 7.2 16 16v32c0 8.8-7.2 16-16 16zM944 524.8h-224c-8.8 0-16-7.2-16-16v-32c0-8.8 7.2-16 16-16h224c8.8 0 16 7.2 16 16v32c0 8.8-7.2 16-16 16zM944 652.8h-224c-8.8 0-16-7.2-16-16v-32c0-8.8 7.2-16 16-16h224c8.8 0 16 7.2 16 16v32c0 8.8-7.2 16-16 16zM417.424 443.444c70.6 0 128 57.4 128 128s-57.4 128-128 128c-70.6 0-128-57.4-128-128s57.4-128 128-128zM238.224 187.444h358.4c24.8 0 44.8 17.2 44.8 38.4v38.4c0 63.6-60.2 115.2-134.4 115.2-21.6 0-37.4-16-89.6-16-53.8 0-66.8 16-89.6 16-74.2 0-134.4-51.6-134.4-115.2v-38.4c0-21.2 20-38.4 44.8-38.4z" />
<glyph unicode="&#xe901;" glyph-name="angle-double-down" horiz-adv-x="640" d="M303 117.2l-296 293.6c-9.4 9.4-9.4 24.6 0 34l39.6 39.6c9.4 9.4 24.6 9.4 34 0l239.4-237 239.4 237c9.4 9.4 24.6 9.4 34 0l39.6-39.6c9.4-9.4 9.4-24.6 0-34l-296-293.6c-9.4-9.4-24.6-9.4-34 0zM337 437.2l296 293.6c9.4 9.4 9.4 24.6 0 34l-39.6 39.6c-9.4 9.4-24.6 9.4-34 0l-239.4-237-239.4 237c-9.4 9.4-24.6 9.4-34 0l-39.6-39.6c-9.4-9.4-9.4-24.6 0-34l296-293.6c9.4-9.4 24.6-9.4 34 0z" />
<glyph unicode="&#xe902;" glyph-name="angle-double-up" horiz-adv-x="640" d="M337 804.4l296-293.6c9.4-9.4 9.4-24.6 0-34l-39.6-39.6c-9.4-9.4-24.6-9.4-34 0l-239.4 237-239.4-237c-9.4-9.4-24.6-9.4-34 0l-39.6 39.6c-9.4 9.4-9.4 24.6 0 34l296 293.6c9.4 9.4 24.6 9.4 34 0zM303 484.4l-296-293.6c-9.4-9.4-9.4-24.6 0-34l39.6-39.6c9.4-9.4 24.6-9.4 34 0l239.4 237 239.4-237c9.4-9.4 24.6-9.4 34 0l39.6 39.6c9.4 9.4 9.4 24.6 0 34l-296 293.6c-9.4 9.4-24.6 9.4-34 0z" />
<glyph unicode="&#xe903;" glyph-name="angle-down" horiz-adv-x="640" d="M303 277.2l-296 293.6c-9.4 9.4-9.4 24.6 0 34l39.6 39.6c9.4 9.4 24.6 9.4 34 0l239.4-237 239.4 237c9.4 9.4 24.6 9.4 34 0l39.6-39.6c9.4-9.4 9.4-24.6 0-34l-296-293.6c-9.4-9.4-24.6-9.4-34 0z" />
<glyph unicode="&#xe904;" glyph-name="angle-right" horiz-adv-x="384" d="M375.6 443.8l-293.6-296c-9.4-9.4-24.6-9.4-34 0l-39.6 39.6c-9.4 9.4-9.4 24.6 0 34l237 239.4-237 239.4c-9.4 9.4-9.4 24.6 0 34l39.6 39.6c9.4 9.4 24.6 9.4 34 0l293.6-296c9.4-9.4 9.4-24.6 0-34z" />
<glyph unicode="&#xe905;" glyph-name="archive" d="M928 908.8h-832c-53 0-96-43-96-96v-160c0-17.6 14.4-32 32-32h32v-544c0-35.4 28.6-64 64-64h768c35.4 0 64 28.6 64 64v544h32c17.6 0 32 14.4 32 32v160c0 53-43 96-96 96zM864 108.8h-704v512h704v-512zM928 716.8h-832v96h832v-96zM408 428.8h208c13.2 0 24 10.8 24 24v48c0 13.2-10.8 24-24 24h-208c-13.2 0-24-10.8-24-24v-48c0-13.2 10.8-24 24-24z" />
<glyph unicode="&#xe906;" glyph-name="submissions-reviews" horiz-adv-x="1280" d="M1184 808.8h-544l68.619-64h475.381c17.68 0 32-14.32 32-32v-556c0-17.68-14.321-32.201-32-32h-272v-64h272c52.94 0 96 43.060 96 96v556c0 52.94-43.061 96.389-96 96zM192 876.8c0 17.68 14.32 32 32 32h576c17.68 0 32-14.32 32-32v-32h64v32c0 52.94-43.060 96-96 96h-576c-52.94 0-96-43.060-96-96v-100h64zM823.047 556.42l-164.917 163.975c-17.691 17.59-41.671 27.557-66.635 27.557h-493.186c-52.089-0.195-94.351-42.215-94.351-94.007v-608.794c0-51.792 42.261-93.812 94.351-93.812h658.103c52.089 0 94.351 42.020 94.351 93.812v444.819c0 24.821-10.025 48.86-27.715 66.45zM778.624 512.055c4.128-4.104 6.88-8.99 8.256-14.463h-187.718v186.646c5.504-1.368 10.418-4.104 14.546-8.209zM756.412 13.88h-658.103c-17.298 0-31.45 14.072-31.45 31.271v608.794c0 17.199 14.153 31.099 31.45 31.271h437.952v-203.258c0-25.994 21.032-46.906 47.175-46.906h204.426v-389.9c0-17.199-14.153-31.271-31.45-31.271z" />
<glyph unicode="&#xe907;" glyph-name="arrow-down" horiz-adv-x="896" d="M887 475.8l-14.2 14.2c-9.4 9.4-24.6 9.4-34 0l-356.8-357v751.8c0 13.2-10.8 24-24 24h-20c-13.2 0-24-10.8-24-24v-751.8l-357 357c-9.4 9.4-24.6 9.4-34 0l-14.2-14.2c-9.4-9.4-9.4-24.6 0-34l422-422.2c9.4-9.4 24.6-9.4 34 0l422 422.2c9.6 9.6 9.6 24.6 0.2 34z" />
<glyph unicode="&#xe908;" glyph-name="arrow-left" horiz-adv-x="896" d="M459.8 25.002l39.598 39.598c9.372 9.372 9.372 24.568 0 33.942l-310.26 310.258h682.862c13.254 0 24 10.746 24 24v56c0 13.254-10.746 24-24 24h-682.862l310.26 310.26c9.372 9.372 9.372 24.568 0 33.942l-39.598 39.596c-9.372 9.372-24.568 9.372-33.942 0l-418.828-418.828c-9.372-9.372-9.372-24.568 0-33.942l418.828-418.828c9.372-9.372 24.568-9.372 33.942 0.002z" />
<glyph unicode="&#xe909;" glyph-name="cogs" horiz-adv-x="1280" d="M1077.2 580l-5 7.8c-8.2-0.6-16.2-0.6-24.4 0l-5-8c-11.6-18.4-34.2-26.8-55-20.2-27.6 8.6-46 17.6-68.6 36.2-18 14.8-22.4 40.6-10.8 60.8l5 8.6c-4.6 6.8-8.6 13.8-12.2 21.2h-18.2c-23.2 0-42.8 16.4-47.2 39.2-5.2 27.4-5.4 48.4 0.2 77 4.2 22.6 24.2 39 47.2 39h18c3.6 7.4 7.6 14.4 12.2 21.2l-5.2 9c-11.6 20-7.2 45.4 10.4 60.6 21.2 18.2 39.4 28.6 67 38 21.6 7.4 45.4-1.4 57-21.2l5.2-8.8c8.2 0.6 16.2 0.6 24.4 0l5.2 8.8c11.6 19.8 35.4 28.6 57.2 21 26.6-9 44.6-19.2 67-38.2 17.6-15 21.8-40.4 10.2-60.4l-5.2-8.8c4.6-6.8 8.6-13.8 12.2-21.2h10.2c23.2 0 42.8-16.4 47.2-39.2 5.2-27.4 5.4-48.4-0.2-77-4.2-22.6-24.2-39-47.2-39h-10c-3.6-7.4-7.6-14.4-12.2-21.2l5-8.6c11.8-20.4 7-46.2-11-61-21.4-17.6-39.8-26.8-68-35.8-21-6.6-43.8 1.6-55.4 20.2zM1101.6 649l21.2-36.6c13.4 5.6 25.8 12.8 37.4 21.6l-21.2 36.6 12.8 15c9.6 11.4 17.2 24.2 22 38.2l6.6 18.6h42.2c1.8 14.2 1.8 28.8 0 43h-42.2l-6.6 18.6c-5 14-12.4 26.8-22 38.2l-12.8 15 21 36.8c-11.4 8.8-24 16-37.4 21.6l-21.2-36.6-19.4 3.6c-14.6 2.8-29.6 2.8-44.2 0l-19.4-3.6-21.2 36.6c-13.2-5.4-25.8-12.8-37.2-21.6l21.2-36.6-12.8-15c-9.6-11.4-17.2-24.2-22-38.2l-6.6-18.6h-42.2c-1.8-14.2-1.8-28.8 0-43h42.2l6.6-18.6c5-14 12.4-26.8 22-38.2l12.8-15-21.2-36.8c11.4-8.8 24-16 37.4-21.6l21.2 36.6 19.4-3.6c14.6-2.8 29.6-2.8 44.2 0l19.4 3.6zM290.6 64v63.2c-25.8 11-50.2 25.2-72.8 42.2l-55-31.8c-19.6-11.2-44.2-7.4-59.4 9.2-48.4 52.6-77 99-101.2 176.2-6.8 21.4 2.2 44.6 21.6 56l54.6 31.8c-3.4 28-3.4 56.2 0 84.2l-54.6 31.6c-19.4 11.2-28.4 34.6-21.6 56 24.2 76.8 52.4 123.2 101.2 176.2 15.2 16.6 40 20.4 59.4 9.2l54.8-31.8c22.6 17 47 31 72.8 42.2v63.2c0 22.6 15.6 42 37.6 46.8 69.4 15.6 124 17.4 203.4 0 22-4.8 37.8-24.4 37.8-46.8v-63.2c25.8-11 50.2-25.2 72.8-42l54.8 31.6c19.6 11.2 44.4 7.4 59.6-9.2 53.8-59.2 83-111.8 104.2-177 6.8-21-1.6-43.8-20.4-55.4l-50-31.6c3.4-28 3.4-56.2 0-84.2l56.2-35c17.2-10.8 26-31.2 21.6-51-13.8-62.6-66-129.2-111.8-178.4-15.2-16.4-39.8-20-59.2-8.8l-55 31.8c-22.6-17-47-31-72.8-42.2v-63.2c0-22.4-15.6-42-37.6-46.8-75-16.6-129.8-16.4-203.8 0-21.6 5-37.2 24.6-37.2 47zM354.6 76.4c49.6-10 101-10 150.6 0v95.4l21.4 7.6c33.6 11.8 64.6 29.8 91.8 53l17.2 14.8 82.8-47.8c33.6 38.2 68 82.6 84.2 130.4l-82.8 47.8 4.2 22.2c6.4 35.2 6.4 71 0 106.2l-4.2 22.2 82.8 47.8c-16.2 47.8-50.6 92.4-84.2 130.4l-82.8-47.8-17.2 14.8c-27.2 23.4-58 41.2-91.8 53l-21.4 7.6v95.2c-49.6 10-101 10-150.6 0v-95.4l-21.4-7.6c-33.6-11.8-64.6-29.8-91.8-53l-17.2-14.8-82.8 47.8c-32.349-36.632-58.026-80.034-74.584-127.701l-0.816-2.699 82.8-47.8-4.2-22.2c-6.4-35.2-6.4-71 0-106.2l4.2-22.2-82.8-47.8c16.2-47.8 41.8-92.4 75.4-130.4l82.8 47.8 17.2-14.8c27.2-23.4 58-41.2 91.8-53l21.4-7.6v-95.2zM431.4 287c-91.4 0-165.8 74.4-165.8 165.8s74.4 165.8 165.8 165.8 165.8-74.4 165.8-165.8-74.4-165.8-165.8-165.8zM431.4 554.6c-56 0-101.8-45.6-101.8-101.8s45.6-101.8 101.8-101.8c56 0 101.8 45.6 101.8 101.8s-45.6 101.8-101.8 101.8zM1077.2-28.8l-5 7.8c-8.2-0.6-16.2-0.6-24.4 0l-5-8c-11.6-18.4-34.2-26.8-55-20.2-27.6 8.6-46 17.6-68.6 36.2-18 14.8-22.4 40.6-10.8 60.8l5 8.6c-4.6 6.8-8.6 13.8-12.2 21.2h-18.2c-23.2 0-42.8 16.4-47.2 39.2-5.2 27.4-5.4 48.4 0.2 77 4.2 22.6 24.2 39 47.2 39h18c3.6 7.4 7.6 14.4 12.2 21.2l-5.2 9c-11.6 20-7.2 45.4 10.4 60.6 21.2 18.2 39.4 28.6 67 38 21.6 7.4 45.4-1.4 57-21.2l5.2-8.8c8.2 0.6 16.2 0.6 24.4 0l5.2 8.8c11.6 19.8 35.4 28.6 57.2 21 26.6-9 44.6-19.2 67-38.2 17.6-15 21.8-40.4 10.2-60.4l-5.2-8.8c4.6-6.8 8.6-13.8 12.2-21.2h10.2c23.2 0 42.8-16.4 47.2-39.2 5.2-27.4 5.4-48.4-0.2-77-4.2-22.6-24.2-39-47.2-39h-10c-3.6-7.4-7.6-14.4-12.2-21.2l5-8.6c11.8-20.4 7-46.2-11-61-21.4-17.6-39.8-26.8-68-35.8-21-6.4-43.8 1.8-55.4 20.2zM1101.6 40.4l21.2-36.6c13.4 5.6 25.8 12.8 37.4 21.6l-21.2 36.6 12.8 15c9.6 11.4 17.2 24.2 22 38.2l6.6 18.6h42.2c1.8 14.2 1.8 28.8 0 43h-42.2l-6.6 18.6c-5 14-12.4 26.8-22 38.2l-12.8 15 21.2 36.6c-11.4 8.8-24 16-37.4 21.6l-21.2-36.6-19.4 3.6c-14.6 2.8-29.6 2.8-44.2 0l-19.4-3.6-21.2 36.6c-13.4-5.6-25.8-12.8-37.4-21.6l21.2-36.6-12.8-15c-9.6-11.4-17.2-24.2-22-38.2l-6.6-18.6h-42.2c-1.8-14.2-1.8-28.8 0-43h42.2l6.6-18.6c5-14 12.4-26.8 22-38.2l12.8-15-21.2-36.6c11.4-8.8 24-16 37.4-21.6l21.2 36.6 19.4-3.6c14.6-2.8 29.6-2.8 44.2 0l19.4 3.6zM1120 156.8c0 35.4-28.6 64-64 64s-64-28.6-64-64 28.6-64 64-64 64 28.6 64 64zM1120 765.4c0 35.4-28.6 64-64 64s-64-28.6-64-64 28.6-64 64-64 64 28.8 64 64z" />
<glyph unicode="&#xe90a;" glyph-name="arrow-right" horiz-adv-x="896" d="M436.202 896.598l-39.598-39.598c-9.372-9.372-9.372-24.568 0-33.942l310.26-310.258h-682.864c-13.254 0-24-10.746-24-24v-56c0-13.254 10.746-24 24-24h682.864l-310.26-310.26c-9.372-9.372-9.372-24.568 0-33.942l39.598-39.598c9.372-9.372 24.568-9.372 33.942 0l418.828 418.828c9.372 9.372 9.372 24.568 0 33.942l-418.83 418.828c-9.372 9.374-24.568 9.374-33.94 0z" />
<glyph unicode="&#xe90b;" glyph-name="user-chart" horiz-adv-x="1280" d="M1216 972.8h-832c-35.34 0-64-28.66-64-64v-192c-106.040 0-192-85.96-192-192s85.96-192 192-192 192 85.96 192 192c0 83.48-53.6 153.8-128 180.24v203.76h832v-704h-605.32c-1.18 1.88-2.060 3.92-3.3 5.76-34.5 51.24-93.34 78.22-153.8 78.22-55.58-0.020-69.54-19.98-133.58-19.98-63.94 0-77.9 19.96-133.58 19.96-60.46 0-119.3-26.96-153.8-78.22-20.6-30.58-32.62-67.42-32.62-107.080v-74.66c0-44.18 35.82-80 80-80h480c44.18 0 80 35.82 80 80v74.66c0 12.82-1.68 25.2-4.080 37.34h580.080c35.34 0 64 28.66 64 64v704c0 35.34-28.66 64-64 64zM448 524.8c0-70.58-57.42-128-128-128s-128 57.42-128 128 57.42 128 128 128 128-57.42 128-128zM576 28.8c0-8.82-7.18-16-16-16h-480c-8.82 0-16 7.18-16 16v74.66c0 25.58 7.5 50.26 21.7 71.34 21.060 31.28 58.7 49.96 100.72 49.96 43.6 0 59.98-19.96 133.58-19.96 73.58 0 90.020 19.96 133.58 19.96 42 0 79.66-18.68 100.72-49.96 14.2-21.080 21.7-45.76 21.7-71.34v-74.66zM677.24 667.42c-18.76 18.76-49.12 18.76-67.88 0l-50.98-50.98c9.12-23.44 14.6-48.34 16.42-74.080l68.5 68.5 126.080-126.060c9.38-9.38 21.62-14.040 33.94-14.040s24.56 4.66 33.94 14.040l117.94 117.94 66.48-66.48c7.92-7.92 17.64-11.46 27.2-11.46 19.98 0 39.14 15.52 39.14 38.94v191.16c0 14.3-11.6 25.9-25.9 25.9h-191.16c-34.62 0-51.96-41.86-27.48-66.34l66.48-66.48-106.62-106.62-126.1 126.060zM1024 716.8v-92.36l-92.36 92.36h92.36z" />
<glyph unicode="&#xe90c;" glyph-name="settings-main-alt" d="M512 972.851c-14.25 0-28.499-4.75-40.199-14.25l-467.402-376.801c-5.2-4.2-5.997-11.801-1.797-16.801l25.199-31.199c4.2-5.2 11.8-6.001 17-1.801l83.199 67v-458c0-35.4 28.6-64 64-64h184c13.2 0 23.8 10.802 24 24v264.199l12.477-0.059c1.289 10.236 1.716 25.62 6.712 37.054 6.606 13.427 6.358 16.216 14.959 26.997l-74.148 0.211c-13.2 0-24.2-10.802-24-24v-264.602h-144v509.801l312.398 252c4.4 3.6 10.6 3.6 15 0 305.763-246.792 394.095-317.888 459.801-370.801 5.2-4.2 12.8-3.399 17 1.801l25.199 31.199c4.2 5.2 3.203 12.8-1.797 17l-467.402 376.801c-11.7 9.5-25.949 14.25-40.199 14.25zM741.59 412.93c-62.305 0-112.884-50.754-112.884-112.884s50.579-112.884 112.884-112.884c62.305 0 112.884 50.754 112.884 112.884s-50.579 112.884-112.884 112.884zM741.59 243.166c-31.327 0-56.88 25.552-56.88 56.88s25.552 56.88 56.88 56.88c31.327 0 56.88-25.552 56.88-56.88s-25.552-56.88-56.88-56.88zM1001.135 261.017l-28.877 16.626c1.4 14.876 1.4 29.927 0 44.804l29.052 16.626c16.626 9.626 24.152 29.227 18.376 47.254-12.601 40.953-34.828 79.456-64.23 111.134-12.951 14.176-33.778 17.326-50.404 7.701l-28.877-16.626c-12.251 8.751-25.202 16.276-38.853 22.402v33.253c0 19.252-13.126 35.528-31.853 39.728-41.828 9.451-86.282 9.451-128.285 0-18.726-4.2-31.853-20.652-31.853-39.728v-33.253c-13.651-6.125-26.777-13.651-38.853-22.402l-28.877 16.626c-16.626 9.626-37.278 6.476-50.229-7.701-29.402-31.678-51.454-70.181-64.23-110.959-5.775-18.201 2.1-38.153 18.551-47.604l28.877-16.626c-1.4-14.876-1.4-29.927 0-44.804l-29.052-16.626c-16.276-9.451-24.152-29.577-18.376-47.429 12.776-40.953 34.828-79.456 64.23-111.134 12.951-14.001 33.603-17.151 50.404-7.701l28.877 16.626c12.251-8.751 25.202-16.276 38.853-22.402v-33.253c0-19.252 13.126-35.528 31.852-39.728 21.002-4.725 42.528-7.001 64.055-7.001s43.228 2.275 64.055 7.001c18.726 4.2 31.853 20.652 31.853 39.728v33.253c13.651 6.125 26.602 13.651 38.853 22.402l28.877-16.626c16.451-9.451 37.278-6.301 50.229 7.701 29.402 31.678 51.454 70.181 64.23 110.959 5.95 18.201-1.925 38.328-18.376 47.779zM910.828 248.416l51.454-29.752c-9.276-25.027-22.752-48.654-39.903-69.131l-51.454 29.752c-37.453-32.028-42.878-35.178-89.432-51.629v-59.505c-26.427-4.55-53.554-4.55-79.806 0v59.505c-47.079 16.626-52.854 20.477-89.432 51.629l-51.454-29.752c-17.151 20.652-30.802 44.104-39.903 69.131l51.454 29.752c-8.576 46.904-9.101 53.554 0 103.258l-51.454 29.752c9.101 25.027 22.752 48.479 39.903 69.13l51.454-29.752c37.453 32.028 42.878 35.178 89.432 51.629v59.505c26.427 4.375 53.729 4.375 79.806 0v-59.505c46.904-16.626 52.854-20.302 89.432-51.629l51.454 29.752c17.151-20.652 30.802-44.103 39.903-69.13l-51.454-29.752c8.576-46.904 9.101-53.554 0-103.258z" />
<glyph unicode="&#xe90d;" glyph-name="arrow-up" horiz-adv-x="896" d="M8.93 445.728l14.14-14.142c9.372-9.372 24.568-9.372 33.942 0l356.988 356.988v-751.774c0-13.254 10.746-24 24-24h20c13.254 0 24 10.746 24 24v751.774l356.988-356.986c9.372-9.372 24.568-9.372 33.942 0l14.14 14.142c9.372 9.372 9.372 24.568 0 33.94l-422.1 422.1c-9.372 9.372-24.568 9.372-33.942 0l-422.098-422.102c-9.374-9.372-9.374-24.568 0-33.94z" />
<glyph unicode="&#xe90e;" glyph-name="bars" horiz-adv-x="896" d="M872 724.8h-848c-13.254 0-24 10.746-24 24v64c0 13.254 10.746 24 24 24h848c13.254 0 24-10.746 24-24v-64c0-13.254-10.746-24-24-24zM872 404.8h-848c-13.254 0-24 10.746-24 24v64c0 13.254 10.746 24 24 24h848c13.254 0 24-10.746 24-24v-64c0-13.254-10.746-24-24-24zM872 84.8h-848c-13.254 0-24 10.746-24 24v64c0 13.254 10.746 24 24 24h848c13.254 0 24-10.746 24-24v-64c0-13.254-10.746-24-24-24z" />
<glyph unicode="&#xe90f;" glyph-name="envelope" d="M928 844.8h-832c-53 0-96-43-96-96v-576c0-53 43-96 96-96h832c53 0 96 43 96 96v576c0 53-43 96-96 96zM96 780.8h832c17.6 0 32-14.4 32-32v-82.8c-43.8-37-106.4-88-301.2-242.6-33.8-26.8-100.4-91.4-146.8-90.6-46.4-0.8-113.2 63.8-146.8 90.6-194.8 154.6-257.4 205.6-301.2 242.6v82.8c0 17.6 14.4 32 32 32zM928 140.8h-832c-17.6 0-32 14.4-32 32v410c45.6-37.4 117.6-95.2 261.4-209.4 41-32.8 113.4-105 186.6-104.6 72.8-0.6 144.6 71 186.6 104.6 143.8 114.2 215.8 172 261.4 209.4v-410c0-17.6-14.4-32-32-32z" />
<glyph unicode="&#xe910;" glyph-name="calendar-alt" horiz-adv-x="896" d="M800 844.8h-96v112c0 8.8-7.2 16-16 16h-32c-8.8 0-16-7.2-16-16v-112h-384v112c0 8.8-7.2 16-16 16h-32c-8.8 0-16-7.2-16-16v-112h-96c-53 0-96-43-96-96v-704c0-53 43-96 96-96h704c53 0 96 43 96 96v704c0 53-43 96-96 96zM277.4 12.8h-181.4c-17.6 0-32 14.4-32 32v117.4h213.4v-149.4zM277.4 226.2h-213.4v149.4h213.4v-149.4zM64 439.4v149.4h213.4v-149.4h-213.4zM554.6 12.8h-213.2v149.4h213.4v-149.4zM554.6 226.2h-213.2v149.4h213.4v-149.4zM341.4 439.4v149.4h213.4v-149.4h-213.4zM832 44.8c0-17.6-14.4-32-32-32h-181.4v149.4h213.4v-117.4zM832 226.2h-213.4v149.4h213.4v-149.4zM832 439.4h-213.4v149.4h213.4v-149.4zM832 652.8h-768v96c0 17.6 14.4 32 32 32h704c17.6 0 32-14.4 32-32v-96z" />
<glyph unicode="&#xe911;" glyph-name="settings-mail" d="M96 964.8c-53 0-96-43-96-96v-576c0-53 43-96 96-96h324.316c0.784 16.524 1.14 28.432 2.747 36.823 4.333 16.281 3.975 11.872 9.339 27.177h-336.402c-17.6 0-32 14.4-32 32v410c45.6-37.4 117.598-95.198 261.398-209.398 26.239-20.991 65.345-58.087 109.285-81.988 9.205 19.234 20.525 37.55 33.742 54.391-38.328 20.101-79.236 58.462-103.227 77.598-194.8 154.6-257.399 205.598-301.199 242.598v82.801c0 17.6 14.4 32 32 32h832c17.6 0 32-14.4 32-32v-82.801c-40.286-34.031-97.817-80.954-258.148-208.391 32.723 4.45 66.298 3.346 98.473-3.273 78.525 62.605 126.519 101.271 159.676 128.465v-203.758c14.546-2.395 25.409-9.942 37.277-20.559 9.73-10.483 18.653-21.728 26.723-33.547v423.863c0 53-43 96-96 96zM744.404 355.588c-62.305 0-112.884-50.754-112.884-112.884s50.579-112.884 112.884-112.884c62.305 0 112.884 50.754 112.884 112.884s-50.579 112.884-112.884 112.884zM744.404 185.825c-31.327 0-56.88 25.552-56.88 56.88s25.552 56.88 56.88 56.88c31.327 0 56.88-25.552 56.88-56.88s-25.552-56.88-56.88-56.88zM1003.949 203.676l-28.877 16.626c1.4 14.876 1.4 29.927 0 44.804l29.052 16.626c16.626 9.626 24.152 29.227 18.376 47.254-12.601 40.953-34.828 79.456-64.23 111.134-12.951 14.176-33.778 17.326-50.404 7.701l-28.877-16.626c-12.251 8.751-25.202 16.276-38.853 22.402v33.253c0 19.252-13.126 35.528-31.853 39.728-41.828 9.451-86.282 9.451-128.285 0-18.726-4.2-31.853-20.652-31.853-39.728v-33.253c-13.651-6.125-26.777-13.651-38.853-22.402l-28.877 16.626c-16.626 9.626-37.278 6.476-50.229-7.701-29.402-31.678-51.454-70.181-64.23-110.959-5.775-18.201 2.1-38.153 18.551-47.604l28.877-16.626c-1.4-14.876-1.4-29.927 0-44.804l-29.052-16.626c-16.276-9.451-24.152-29.577-18.376-47.429 12.776-40.953 34.828-79.456 64.23-111.134 12.951-14.001 33.603-17.151 50.404-7.701l28.877 16.626c12.251-8.751 25.202-16.276 38.853-22.402v-33.253c0-19.252 13.126-35.528 31.852-39.728 21.002-4.725 42.528-7.001 64.055-7.001s43.228 2.275 64.055 7.001c18.726 4.2 31.853 20.652 31.853 39.728v33.253c13.651 6.125 26.602 13.651 38.853 22.402l28.877-16.626c16.451-9.451 37.278-6.301 50.229 7.701 29.402 31.678 51.454 70.181 64.23 110.959 5.95 18.201-1.925 38.328-18.376 47.779zM913.642 191.075l51.454-29.752c-9.276-25.027-22.752-48.654-39.903-69.131l-51.454 29.752c-37.453-32.028-42.878-35.178-89.432-51.629v-59.505c-26.427-4.55-53.554-4.55-79.806 0v59.505c-47.079 16.626-52.854 20.477-89.432 51.629l-51.454-29.752c-17.151 20.652-30.802 44.104-39.903 69.131l51.454 29.752c-8.576 46.904-9.101 53.554 0 103.258l-51.454 29.752c9.101 25.027 22.752 48.479 39.903 69.13l51.454-29.752c37.453 32.028 42.878 35.178 89.432 51.629v59.505c26.427 4.375 53.729 4.375 79.806 0v-59.505c46.904-16.626 52.854-20.302 89.432-51.629l51.454 29.752c17.151-20.652 30.802-44.103 39.903-69.13l-51.454-29.752c8.576-46.904 9.101-53.554 0-103.258z" />
<glyph unicode="&#xe912;" glyph-name="calendar-edit" horiz-adv-x="896" d="M800 844.8h-96v104c0 13.2-10.8 24-24 24h-16c-13.2 0-24-10.8-24-24v-104h-384v104c0 13.2-10.8 24-24 24h-16c-13.2 0-24-10.8-24-24v-104h-96c-53 0-96-43-96-96v-704c0-53 43-96 96-96h704c53 0 96 43 96 96v704c0 53-43 96-96 96zM96 780.8h704c17.6 0 32-14.4 32-32v-96h-768v96c0 17.6 14.4 32 32 32zM800 12.8h-704c-17.6 0-32 14.4-32 32v544h768v-544c0-17.6-14.4-32-32-32zM511.4 433.4l69.2-69.2c4.2-4.2 4.2-10.8 0-14.8l-262.4-262.4-70.2-10c-13.8-2-25.8 9.8-23.8 23.8l10 70.2 262.4 262.4c4 4 10.8 4 14.8 0zM661.8 430.6l-38.4-38.4c-4.2-4.2-10.8-4.2-14.8 0l-69.2 69.2c-4.2 4.2-4.2 10.8 0 14.8l38.4 38.4c13.6 13.6 35.8 13.6 49.4 0l34.6-34.6c13.6-13.6 13.6-35.8 0-49.4z" />
<glyph unicode="&#xe913;" glyph-name="quote-right" d="M352 908.8h-224c-70.6 0-128-57.4-128-128v-256c0-70.6 57.4-128 128-128h128v-48c0-61.8-50.2-112-112-112h-32c-44.2 0-80-35.8-80-80v-64c0-44.2 35.8-80 80-80h32c185.2 0 336 150.8 336 336v432c0 70.6-57.4 128-128 128zM416 348.8c0-150.2-121.8-272-272-272h-32c-8.8 0-16 7.2-16 16v64c0 8.8 7.2 16 16 16h32c97.2 0 176 78.8 176 176v112h-192c-35.4 0-64 28.6-64 64v256c0 35.4 28.6 64 64 64h224c35.4 0 64-28.6 64-64v-432zM896 908.8h-224c-70.6 0-128-57.4-128-128v-256c0-70.6 57.4-128 128-128h128v-48c0-61.8-50.2-112-112-112h-32c-44.2 0-80-35.8-80-80v-64c0-44.2 35.8-80 80-80h32c185.2 0 336 150.8 336 336v432c0 70.6-57.4 128-128 128zM960 348.8c0-150.2-121.8-272-272-272h-32c-8.8 0-16 7.2-16 16v64c0 8.8 7.2 16 16 16h32c97.2 0 176 78.8 176 176v112h-192c-35.4 0-64 28.6-64 64v256c0 35.4 28.6 64 64 64h224c35.4 0 64-28.6 64-64v-432z" />
<glyph unicode="&#xe914;" glyph-name="caret-down" horiz-adv-x="640" d="M62.6 588.8h514.6c35.6 0 53.4-43 28.2-68.2l-257.2-257.4c-15.6-15.6-41-15.6-56.6 0l-257.2 257.4c-25.2 25.2-7.4 68.2 28.2 68.2z" />
<glyph unicode="&#xe915;" glyph-name="user-search" horiz-adv-x="1280" d="M384 460.8c123.8 0 224 100.2 224 224s-100.2 224-224 224c-123.8 0-224-100.2-224-224s100.2-224 224-224zM384 844.8c88.2 0 160-71.8 160-160s-71.8-160-160-160c-88.2 0-160 71.8-160 160s71.8 160 160 160zM544.2 420.8c-66.8 0-83.4-24-160.2-24s-93.4 24-160.2 24c-72.6 0-143.2-32.4-184.6-93.8-24.8-36.8-39.2-81-39.2-128.6v-89.6c0-53 43-96 96-96h576c53 0 96 43 96 96v89.6c0 47.6-14.4 91.8-39.2 128.6-41.4 61.4-112 93.8-184.6 93.8zM704 108.8c0-17.6-14.4-32-32-32h-576c-17.6 0-32 14.4-32 32v89.6c0 33.2 9.8 65.4 28.2 92.8 27.6 41 76.8 65.6 131.4 65.6 54.8 0 74.4-24 160.4-24s105.6 24 160.2 24c54.6 0 103.8-24.6 131.4-65.6 18.4-27.4 28.2-59.6 28.2-92.8v-89.6zM1257.61 214.411l-140.291 145.046c63.999 97.314 45.898 228.996-41.768 303.998-87.664 75-216.1 68.691-296.59-14.502s-86.629-215.981-14.114-306.638c72.518-90.66 199.878-109.414 294.020-43.274l140.309-145.046c10.76-11.117 28.197-11.117 38.956 0l19.478 20.138c10.753 11.124 10.753 29.153 0 40.277zM935.023 345.070c-55.726 0-105.964 34.706-127.288 87.934s-9.533 114.493 29.87 155.233c39.404 40.739 98.661 52.929 150.144 30.883s85.051-73.988 85.051-131.603c0-78.671-61.685-142.447-137.777-142.447z" />
<glyph unicode="&#xe916;" glyph-name="caret-left" horiz-adv-x="384" d="M384 718.124v-514.648c0-35.636-43.086-53.482-68.284-28.284l-257.324 257.324c-15.62 15.62-15.62 40.948 0 56.568l257.324 257.324c25.198 25.2 68.284 7.352 68.284-28.284z" />
<glyph unicode="&#xe917;" glyph-name="caret-right" horiz-adv-x="384" d="M0 203.476v514.648c0 35.636 43.086 53.482 68.284 28.284l257.324-257.324c15.62-15.62 15.62-40.948 0-56.568l-257.324-257.324c-25.198-25.2-68.284-7.352-68.284 28.284z" />
<glyph unicode="&#xe918;" glyph-name="caret-up" horiz-adv-x="640" d="M577.324 268.8h-514.648c-35.636 0-53.482 43.086-28.284 68.284l257.324 257.324c15.62 15.62 40.948 15.62 56.568 0l257.324-257.324c25.2-25.198 7.352-68.284-28.284-68.284z" />
<glyph unicode="&#xe919;" glyph-name="check" d="M871.696 805.868l-526.088-526.088-193.304 193.304c-9.372 9.372-24.568 9.372-33.942 0l-56.568-56.568c-9.372-9.372-9.372-24.568 0-33.942l266.842-266.842c9.372-9.372 24.568-9.372 33.942 0l599.626 599.626c9.372 9.372 9.372 24.568 0 33.942l-56.568 56.568c-9.372 9.372-24.568 9.372-33.94 0z" />
<glyph unicode="&#xe91a;" glyph-name="chevron-left" horiz-adv-x="512" d="M462.586 25.002l39.598 39.598c9.372 9.372 9.372 24.568 0 33.942l-361.398 362.258 361.398 362.26c9.372 9.372 9.372 24.568 0 33.942l-39.598 39.598c-9.372 9.372-24.568 9.372-33.942 0l-418.828-418.83c-9.372-9.372-9.372-24.568 0-33.942l418.828-418.828c9.374-9.372 24.57-9.372 33.942 0.002z" />
<glyph unicode="&#xe91b;" glyph-name="clock-alt" d="M505.563 960.761c-143.785-0.855-285.141-68.161-376.855-178.832-91.515-107.705-132.711-255.463-111.273-395.043 21.337-150.527 116.425-287.928 249.156-361.84 138.264-79.183 314.883-85.464 458.555-16.684 139.867 65.018 245.541 198.275 276.246 349.504 30.075 140.537-4.078 293.329-92.348 406.934-88.155 116.329-229.378 190.281-375.332 195.527-9.376 0.419-18.764 0.537-28.148 0.434zM545.203 887.675c114.902-8.586 226.168-66.277 298.727-156.684 53.943-65.322 86.492-147.337 94.336-231.379h-52.922c-8.837 0-16-7.163-16-16v-44c0-8.837 7.163-16 16-16h53.176c-1.1-12.591-2.743-25.132-5.012-37.566-22.419-133.549-113.944-253.429-236.445-311.234-47.526-23.125-99.063-36.612-151.289-40.645v50.648c0 8.837-7.163 16-16 16h-44c-8.837 0-16-7.163-16-16v-49.863c-65.798 6.44-130.136 27.832-186.336 63.879-111.122 69.431-187.080 192.769-197.758 323.809-0.025 0.263-0.042 0.526-0.066 0.789h51.336c8.837 0 16 7.163 16 16v44c0 8.837-7.163 16-16 16h-51.324c8.884 96.518 51.084 190.625 119.781 260.020 69.415 71.86 164.772 117.457 263.797 127.332v-55.297c0-8.837 7.163-16 16-16h44c8.837 0 16 7.163 16 16v56.191zM376.644 547.472l83.757-113.968c4.6-6.2 11.8-9.8 19.4-9.8h240.2c13.2 0 24 10.8 24 24v28c0 13.2-10.8 24-24 24h-219.8l-63.4 91.6c-7.8 10.8-22.8 13-33.6 5.2l-22.273-16.687c-10.6-7.6-12.083-21.545-4.283-32.345z" />
<glyph unicode="&#xe91c;" glyph-name="chevron-right" horiz-adv-x="512" d="M49.414 896.598l-39.598-39.596c-9.372-9.372-9.372-24.568 0-33.942l361.398-362.26-361.398-362.26c-9.372-9.372-9.372-24.568 0-33.942l39.598-39.598c9.372-9.372 24.568-9.372 33.942 0l418.828 418.828c9.372 9.372 9.372 24.568 0 33.942l-418.828 418.828c-9.374 9.374-24.57 9.374-33.942 0z" />
<glyph unicode="&#xe91d;" glyph-name="address-card-add" horiz-adv-x="1152" d="M128 908.8c-70.6 0-128-57.4-128-128v-640c0-70.6 57.4-128 128-128h518.797c-24.050 17.928-45.193 39.538-62.59 64h-456.207c-35.2 0-64 28.8-64 64v640c0 35.2 28.8 64 64 64h896c35.2 0 64-28.8 64-64v-260.512c25.577-20.648 47.534-45.594 64.762-73.758 0.474 106.555 0.707 247.269-0.762 334.27 0 70.6-57.4 128-128 128zM720 712.8c-8.8 0-16-7.2-16-16v-32c0-8.8 7.2-16 16-16h224c8.8 0 16 7.2 16 16v32c0 8.8-7.2 16-16 16zM418.945 698.495c-70.6 0-128-57.4-128-128s57.4-128 128-128c70.6 0 128 57.4 128 128s-57.4 128-128 128zM329.344 378.495c-74.2 0-134.398-51.599-134.398-115.199v-38.402c0-21.2 19.997-38.398 44.797-38.398h296.688c-7.123 25.009-10.938 51.412-10.938 78.711 0 38.417 7.569 75.055 21.27 108.531-12.119 3.079-24.938 4.758-38.219 4.758-21.6 0-37.398-16-89.598-16-53.8 0-66.802 16-89.602 16zM1011.622 287.912v-36.986c0-7.628-6.241-13.87-13.87-13.87h-101.712v-101.712c0-7.628-6.241-13.87-13.87-13.87h-36.986c-7.628 0-13.87 6.241-13.87 13.87v101.712h-101.712c-7.628 0-13.87 6.241-13.87 13.87v36.986c0 7.628 6.241 13.87 13.87 13.87h101.712v101.712c0 7.628 6.241 13.87 13.87 13.87h36.986c7.628 0 13.87-6.241 13.87-13.87v-101.712h101.712c7.628 0 13.87-6.241 13.87-13.87zM1150.321 269.419c0-158.348-128.296-286.644-286.644-286.644s-286.644 128.296-286.644 286.644c0 158.348 128.296 286.644 286.644 286.644s286.644-128.296 286.644-286.644zM1094.842 269.419c0 127.718-103.446 231.165-231.165 231.165s-231.165-103.446-231.165-231.165c0-127.718 103.446-231.165 231.165-231.165s231.165 103.446 231.165 231.165z" />
<glyph unicode="&#xe91e;" glyph-name="circle" d="M512 956.8c-274 0-496-222-496-496s222-496 496-496 496 222 496 496-222 496-496 496z" />
<glyph unicode="&#xe91f;" glyph-name="clipboard-list-check" horiz-adv-x="768" d="M672 844.8h-177.2c0.8 5.2 1.2 10.6 1.2 16 0 61.8-50.2 112-112 112s-112-50.2-112-112c0-5.4 0.4-10.8 1.2-16h-177.2c-53 0-96-43-96-96v-704c0-53 43-96 96-96h576c53 0 96 43 96 96v704c0 53-43 96-96 96zM384 908.8c26.6 0 48-21.4 48-48s-21.4-48-48-48-48 21.4-48 48 21.4 48 48 48zM704 44.8c0-17.6-14.4-32-32-32h-576c-17.6 0-32 14.4-32 32v704c0 17.6 14.4 32 32 32h96v-40c0-13.2 10.8-24 24-24h336c13.2 0 24 10.8 24 24v40h96c17.6 0 32-14.4 32-32v-704zM224 316.8c-26.6 0-48-21.4-48-48s21.4-48 48-48 48 21.4 48 48-21.4 48-48 48zM560 300.8h-224c-8.8 0-16-7.2-16-16v-32c0-8.8 7.2-16 16-16h224c8.8 0 16 7.2 16 16v32c0 8.8-7.2 16-16 16zM252.4 432l128.4 127.2c4.2 4.2 4.2 11 0 15.2l-25.2 25.4c-4.2 4.2-11 4.2-15.2 0l-95.2-94.4-41.2 41.8c-4.2 4.2-11 4.2-15.2 0l-25.4-25.2c-4.2-4.2-4.2-11 0-15.2l74.2-74.8c3.8-4.2 10.6-4.2 14.8 0zM560 492.8h-155.2l-64.6-64h219.8c8.8 0 16 7.2 16 16v32c0 8.8-7.2 16-16 16z" />
<glyph unicode="&#xe920;" glyph-name="cog" d="M965.392 374.248l-65.22 37.654c1.958 14.684 3.075 31.661 3.075 48.899s-1.117 34.215-3.284 50.863l0.209-1.964 65.22 37.654c19.152 11.056 28.39 33.804 22.092 55.002-22.428 75.498-62.35 143.456-115.070 199.19-15.268 16.14-39.634 19.672-58.874 8.564l-65.124-37.596c-24.475 18.797-52.351 35.208-82.151 47.995l-2.527 0.965v75.228c0 22.26-15.304 41.608-36.968 46.734-75.288 17.818-154.236 17.82-229.54 0-21.662-5.126-36.968-24.472-36.968-46.734v-75.228c-32.327-13.752-60.203-30.162-85.603-49.641l0.925 0.681-65.124 37.596c-19.242 11.108-43.608 7.576-58.874-8.564-52.72-55.734-92.642-123.694-115.070-199.19-6.298-21.198 2.94-43.944 22.092-55.002l65.22-37.654c-1.958-14.684-3.075-31.661-3.075-48.899s1.117-34.215 3.284-50.863l-0.209 1.964-65.22-37.654c-19.152-11.056-28.39-33.804-22.092-55.002 22.428-75.496 62.35-143.456 115.070-199.19 15.268-16.14 39.634-19.672 58.874-8.566l65.124 37.596c24.474-18.798 52.351-35.207 82.151-47.994l2.527-0.964v-75.228c0-22.26 15.304-41.608 36.968-46.734 75.29-17.818 154.236-17.82 229.54 0 21.662 5.126 36.968 24.472 36.968 46.734v75.228c32.326 13.752 60.203 30.162 85.604 49.64l-0.926-0.682 65.124-37.596c19.24-11.108 43.606-7.576 58.874 8.566 52.72 55.734 92.642 123.694 115.070 199.19 6.298 21.198-2.94 43.944-22.092 55.002zM834.434 173.326l-92.618 53.48c-53.976-46.142-73.118-57.752-142.078-82.118v-106.958c-26.375-5.694-56.676-8.955-87.738-8.955s-61.363 3.261-90.578 9.459l2.84-0.504v106.958c-67.242 23.758-86.71 34.79-142.078 82.118l-92.618-53.48c-39.42 44.18-69.378 95.978-87.858 151.916l92.658 53.48c-13.070 70.834-13.076 93.288 0 164.158l-92.658 53.48c18.48 55.938 48.44 107.738 87.858 151.938l92.618-53.52c54.754 46.868 74.126 58.13 142.078 82.138v106.956c26.376 5.703 56.675 8.97 87.738 8.97s61.363-3.267 90.575-9.475l-2.837 0.505v-106.958c67.956-24.010 87.33-35.274 142.078-82.138l92.618 53.52c39.418-44.198 69.378-95.998 87.858-151.938l-92.658-53.48c13.072-70.852 13.076-93.288 0-164.158l92.658-53.48c-18.48-55.936-48.438-107.736-87.858-151.914zM512 652.8c-105.87 0-192-86.13-192-192s86.13-192 192-192 192 86.13 192 192-86.13 192-192 192zM512 332.8c-70.58 0-128 57.42-128 128s57.42 128 128 128 128-57.42 128-128-57.42-128-128-128z" />
<glyph unicode="&#xe921;" glyph-name="comments" horiz-adv-x="1152" d="M1064 200.4c55 54.2 88 122.2 88 196.4 0 160-153 292.2-352.4 315.8-62.8 115.2-211 196.2-383.6 196.2-229.8 0-416-143.2-416-320 0-74 33-142 88-196.4-30.6-61.4-74.6-109-75.4-109.8-12.6-13.4-16.2-33-8.8-50 7.2-17 24-28 42.4-28 107 0 193.4 40.4 250.4 77.6 18.2-4.2 36.8-7.4 56-9.6 63-115 211-196 383.6-196 41.6 0 81.6 4.8 119.6 13.6 57-37 143.2-77.6 250.4-77.6 18.4 0 35 11 42.4 28 7.2 17 3.8 36.6-8.8 50-1 0.8-45.2 48.4-75.8 109.8zM284.4 350.8l-22.8-14.8c-40.2-26.2-101-56.4-175.4-65 17.6 22.6 40.4 55.2 59 92.8l20.8 41.6-33 32.6c-31.6 31-69 82.4-69 150.8 0 141.2 158 256 352 256s352-114.8 352-256-158-256-352-256c-35.4 0-70.8 4-105.2 12l-26.4 6zM890.4 144l-22.8 14.8-26.4-6.2c-34.4-8-69.8-12-105.2-12-130.2 0-244 51.8-304.8 128.6 222.6 6.4 400.8 146.8 400.8 319.6 0 19-2.6 37.4-6.6 55.4 150.8-29 262.6-128.8 262.6-247.4 0-68.4-37.4-119.8-69-150.8l-33-32.6 20.6-41.4c18.8-37.8 41.6-70.4 59-92.8-74.2 8.4-135 38.8-175.2 64.8zM814.8 679.4c0.2-0.4 0.2-0.8 0.4-1.2-0.2 0.4-0.2 0.8-0.4 1.2z" />
<glyph unicode="&#xe922;" glyph-name="do-not-enter" horiz-adv-x="992" d="M496 956.8c-273.94 0-496-222.060-496-496s222.060-496 496-496 496 222.060 496 496-222.060 496-496 496zM848 364.8h-704c-17.68 0-32 14.32-32 32v128c0 17.68 14.32 32 32 32h704c17.68 0 32-14.32 32-32v-128c0-17.68-14.32-32-32-32z" />
<glyph unicode="&#xe923;" glyph-name="download" horiz-adv-x="1152" d="M1056 396.8h-184.2l92.2 92.2c60.2 60.2 17.6 163.8-67.8 163.8h-128v224c0 53-43 96-96 96h-192c-53 0-96-43-96-96v-224h-128c-85.2 0-128.4-103.4-67.8-163.8l92.2-92.2h-184.6c-53 0-96-43-96-96v-256c0-53 43-96 96-96h960c53 0 96 43 96 96v256c0 53-43 96-96 96zM256 556.8h224v320h192v-320h224l-320-320-320 320zM1056 44.8h-960v256h280.2l131.8-131.8c37.6-37.6 98.2-37.4 135.8 0l131.8 131.8h280.4v-256zM880 172.8c0 26.6 21.4 48 48 48s48-21.4 48-48-21.4-48-48-48-48 21.4-48 48z" />
<glyph unicode="&#xe924;" glyph-name="envelope-open-text" d="M704 476.8v32c0 8.84-7.16 16-16 16h-352c-8.84 0-16-7.16-16-16v-32c0-8.84 7.16-16 16-16h352c8.84 0 16 7.16 16 16zM336 588.8h352c8.84 0 16 7.16 16 16v32c0 8.84-7.16 16-16 16h-352c-8.84 0-16-7.16-16-16v-32c0-8.84 7.16-16 16-16zM989.18 643.76c-3.96 3.26-44.38 35.82-93.18 75.060v61.98c0 35.34-28.66 64-64 64h-92.94c-8.26 6.62-15.42 12.32-20.4 16.28-44.2 35.34-119.78 111.72-206.66 111.72-86.42 0-161.28-75.44-206.68-111.72-5.060-4.020-12.2-9.74-20.4-16.28h-92.92c-35.34 0-64-28.66-64-64v-61.96c-49.040-39.42-89.5-72.020-92.96-74.86-21.459-17.734-35.033-44.351-35.040-74.139v-525.041c0-53.020 42.98-96 96-96h832c53.020 0 96 42.98 96 96v524.98c0 28.62-12.76 55.76-34.82 73.98zM512 908.8c43.54 0 89.28-33.44 126.28-64h-252.48c37.060 30.54 82.84 64 126.2 64zM192 780.8h640v-346.7c-64.66-52-130.6-104.88-173.18-138.68-33.7-26.86-100.38-91.36-146.82-90.62-46.42-0.76-113.12 63.76-146.82 90.64-42.58 33.8-108.48 86.66-173.18 138.68v346.68zM64 569.84c0 9.6 4.26 18.62 11.68 24.72 2.48 2.040 23.24 18.76 52.32 42.16v-151.1c-23.060 18.56-45.020 36.26-64 51.56v32.66zM960 44.8c0-17.64-14.36-32-32-32h-832c-17.64 0-32 14.36-32 32v410.18c85.5-68.88 198.62-159.84 261.36-209.64 40.98-32.72 113.48-105.060 186.64-104.52 72.9-0.52 144.54 70.92 186.62 104.52 62.82 49.86 175.86 140.78 261.38 209.66v-410.2zM960 537.18c-19.24-15.5-40.54-32.68-64-51.58v151.080c28.88-23.24 49.6-39.94 52.4-42.24 7.38-6.1 11.6-15.080 11.6-24.66v-32.6z" />
<glyph unicode="&#xe925;" glyph-name="exchange-alt" d="M1016.97 635.84l-192.32-192.32c-15.16-15.16-40.97-4.28-40.97 16.97l-0.014 144.31h-759.666c-13.254 0-24 10.746-24 24v48c0 13.254 10.746 24 24 24h759.666l0.020 144.324c0.002 21.366 25.898 32.044 40.97 16.97l192.312-192.312c9.374-9.372 9.376-24.57 0.002-33.942zM7.030 251.818l192.312-192.312c15.072-15.072 40.968-4.396 40.97 16.97l0.020 144.324h759.668c13.254 0 24 10.746 24 24v48c0 13.256-10.746 24-24 24h-759.666l-0.014 144.308c0 21.25-25.81 32.132-40.97 16.97l-192.32-192.32c-9.374-9.37-9.372-24.568 0-33.94z" />
<glyph unicode="&#xe926;" glyph-name="front-desk" horiz-adv-x="1152" d="M175.602 972.8c-79.4 0-144-64.6-144-144 0-52.4 28.398-97.999 70.398-123.199-20.4-8-39.199-19.801-55.199-35.801-30.2-30.2-46.802-70.598-46.602-113.398l0.199-191.602-0.398-319.801c0-53 43.001-95.999 95.801-96.199 51 0 92.8 39.8 96 90 3.2-50.2 44.801-90 95.801-90 53 0 96 43 96 96v113c0 73.6-27 86.401-96 153.801v111.598c22.2-16.8 49.598-26.199 77.598-26.199h115.199c53 0 96 43 96 96s-43.199 95.801-96.199 95.801h-88.598l-81 81.199c-17 17-37.203 29.2-59.203 37 40.8 25.4 68.203 70.401 68.203 121.801 0 79.4-64.6 144-144 144zM175.602 908.8c44.2 0 80-35.8 80-80s-35.8-80-80-80c-44.2 0-80 35.8-80 80s35.8 80 80 80zM836.379 882.632c-69.43 0-125.93-58.383-125.93-130.129 0-44.314 21.614-83.526 54.457-107.090-33.864-26.377-60.072-64.537-73.516-110.434l-14.805-50.117-33.352-37.102c-25.015-28.136-31.654-66.999-17.020-101.289 2.018-4.809 4.383-9.369 7.031-13.672h-121.047c-35.4 0-64-28.6-64-64v-304c0-8.8 7.2-16 16-16h32c8.8 0 16 7.2 16 16v304l575.762-0.063 0.039-303.938c0-8.8 7.2-16 16-16h32c8.8 0 16 7.2 16 16v304c0 35.4-28.6 64-64 64h-64.832l-16.445 46.555c0.34 2.462 0.679 4.749 1.020 7.211 15.145-14.419 34.717-22.684 55.988-22.684 29.27 0 57.517 15.826 74.023 41.5 16.847 26.377 19.571 58.907 7.148 89.152l-20.082 49.238c-19.57 44.138-52.58 78.602-93.422 97.066l-14.637 6.684c-28.759 13.364-52.074 23.915-77.090 30.598 14.295 21.102 22.637 46.775 22.637 74.383 0 71.746-56.499 130.129-125.93 130.129zM836.379 826.359c39.48 0 71.473-33.059 71.473-73.855s-31.993-73.855-71.473-73.855c-39.48 0-71.473 33.059-71.473 73.855s31.993 73.855 71.473 73.855zM160 652.8h37.398c25.6 0 49.801-9.999 67.801-28.199l99.801-99.801h115.199c17.6 0 32-14.4 32-32s-14.2-32-32-32h-115.199c-16.8 0-33.199 6.801-45.199 18.801l-96.402 96.398v-291.398c84.2-82.4 96-84.201 96-126.801v-113c0-17.6-14.4-32-32-32s-32 14.4-32 32c0 156.4 31.001 91.601-127.199 243.801l-0.199-243.801c0-17.6-14.4-32-32-32s-32 14.4-32 32l0.398 320-0.398 191.801c0 52.4 42.4 96.199 96 96.199zM879.094 629.409c47.478 0 72.152-13.541 130.352-40.094 28.419-12.837 51.563-36.925 65.688-68.93l19.566-47.832c11.912-29.015-9.697-52.578-30.969-52.578-11.061 0-21.954 6.33-28.25 21.629l-19.059 46.777c-6.467 14.771-17.527 26.201-31.141 32.355-29.44 13.54-44.927 20.748-60.242 26.375l26.887-121.859c6.467-29.015-0.51-59.616-20.25-83.883-2.214-2.922-4.963-5.777-8.070-8.57h-96.133l25.582 26.684-35.566 161.254c-10.21-15.123-10.378-19.342-29.777-85.285-3.744-12.837-10.21-24.621-18.719-34.117l-39.992-44.488c-6.807-7.737-14.634-10.902-22.121-10.902-25.186 0-47.651 36.752-23.656 63.656l39.82 44.488c1.361 1.407 2.212 3.167 2.723 4.926l17.527 59.613c19.57 66.294 74.028 110.781 135.801 110.781z" />
<glyph unicode="&#xe927;" glyph-name="eye" horiz-adv-x="1152" d="M1138.708 509.538c-112.77 191.366-323.092 319.262-562.708 319.262-239.72 0-449.992-127.988-562.708-319.26-8.353-13.945-13.293-30.765-13.293-48.739s4.94-34.794 13.536-49.177l-0.243 0.438c112.772-191.368 323.092-319.262 562.708-319.262 239.72 0 449.992 127.988 562.708 319.262 8.352 13.945 13.291 30.765 13.291 48.738s-4.939 34.793-13.534 49.176l0.243-0.438zM832 516.8c0-136.966-114.616-248-256-248s-256 111.034-256 248 114.616 248 256 248 256-111.034 256-248zM1083.568 444.554c-103.894-176.308-295.838-287.754-507.568-287.754-212.582 0-404.122 112.21-507.568 287.752-2.783 4.649-4.429 10.256-4.429 16.247s1.646 11.598 4.51 16.393l-0.081-0.146c58.144 98.666 146.682 180.87 255.32 231.774-42.062-52.402-67.752-119.156-67.752-192.020 0-171.636 142.442-312 320-312 177.54 0 320 140.356 320 312 0 72.822-25.666 139.588-67.75 192.020 107.52-50.378 196.548-132.042 255.32-231.774 2.782-4.648 4.428-10.254 4.428-16.244 0-5.992-1.646-11.599-4.511-16.394l0.081 0.146zM448 524.8c0 21.794 5.454 42.312 15.060 60.274v-0.040c0-29.108 23.598-52.706 52.706-52.706s52.706 23.598 52.706 52.706-23.598 52.706-52.706 52.706h-0.040c17.962 9.606 38.48 15.060 60.274 15.060 70.692 0 128-57.308 128-128s-57.308-128-128-128-128 57.308-128 128z" />
<glyph unicode="&#xe928;" glyph-name="eye-slash" horiz-adv-x="1152" d="M642.992 160.558l43.436-58.544c-33.129-5.862-71.27-9.214-110.194-9.214-0.083 0-0.165 0-0.248 0h0.014c-239.72 0-449.994 127.988-562.708 319.262-8.353 13.945-13.293 30.765-13.293 48.739s4.94 34.794 13.536 49.177l-0.243-0.438c51.668 87.68 123.826 162.020 209.886 216.854l38.25-51.554c-79.66-49.884-146.008-118.054-192.998-197.792-2.783-4.649-4.428-10.255-4.428-16.246s1.645-11.597 4.509-16.392l-0.081 0.146c103.896-176.31 295.84-287.756 507.57-287.756 22.596 0 44.952 1.28 66.992 3.758zM283.944 644.49c-17.87-38.83-27.944-82.070-27.944-127.69 0-171.644 142.46-312 320-312 11.132 0 22.126 0.554 32.958 1.63l-46.532 62.718c-135.074 6.836-242.426 115.098-242.426 247.652 0 0.037 0 0.081 0 0.125 0 23.65 3.407 46.505 9.758 68.099l-0.43-1.704-45.384 61.17zM1138.708 412.060c-67.418-114.404-169.722-206.078-292.286-261.346l113.862-153.464c8-10.782 5.744-26.008-5.038-34.008l-13.014-9.656c-10.782-8-26.008-5.744-34.006 5.038l-716.508 965.726c-8 10.782-5.744 26.008 5.038 34.008l13.014 9.656c10.782 8 26.008 5.744 34.006-5.038l124.378-167.64c65.328 21.698 135.238 33.464 207.846 33.464 239.72 0 449.992-127.988 562.708-319.26 8.352-13.945 13.292-30.766 13.292-48.74s-4.939-34.795-13.534-49.178l0.243 0.438zM832 516.8c0 136.966-114.616 248-256 248-56.118 0-108.004-17.508-150.19-47.176l69.418-93.564c40.678 33.168 96.488 37.51 141.046 13.68h-0.040c-29.108 0-52.706-23.598-52.706-52.706s23.598-52.706 52.706-52.706c29.108 0 52.706 23.598 52.706 52.706v0.040c30.446-56.93 13.778-129.108-41.358-166.36l77.028-103.822c64.996 44.978 107.39 118.632 107.39 201.908zM1083.57 477.046c-58.144 98.666-146.682 180.87-255.32 231.774 110.81-138.058 83.402-340.826-65.468-445.376l44.476-59.946c115.128 48.61 212.492 132.76 276.31 241.054 2.784 4.649 4.43 10.257 4.43 16.249 0 5.991-1.645 11.597-4.509 16.392l0.081-0.146z" />
<glyph unicode="&#xe929;" glyph-name="file-alt" horiz-adv-x="768" d="M739.8 777l-167.8 167.8c-18 18-42.4 28.2-67.8 28.2h-408.2c-53-0.2-96-43.2-96-96.2v-832c0-53 43-96 96-96h576c53 0 96 43 96 96v664.2c0 25.4-10.2 50-28.2 68zM694.6 731.6c4.2-4.2 7-9.2 8.4-14.8h-191v191c5.6-1.4 10.6-4.2 14.8-8.4l167.8-167.8zM672 12.8h-576c-17.6 0-32 14.4-32 32v832c0 17.6 14.4 32 32 32h352v-208c0-26.6 21.4-48 48-48h208v-608c0-17.6-14.4-32-32-32zM576 500.8v-16c0-13.2-10.8-24-24-24h-336c-13.2 0-24 10.8-24 24v16c0 13.2 10.8 24 24 24h336c13.2 0 24-10.8 24-24zM576 372.8v-16c0-13.2-10.8-24-24-24h-336c-13.2 0-24 10.8-24 24v16c0 13.2 10.8 24 24 24h336c13.2 0 24-10.8 24-24zM576 244.8v-16c0-13.2-10.8-24-24-24h-336c-13.2 0-24 10.8-24 24v16c0 13.2 10.8 24 24 24h336c13.2 0 24-10.8 24-24z" />
<glyph unicode="&#xe92a;" glyph-name="file-csv" horiz-adv-x="768" d="M448 700.8v272h-400c-26.6 0-48-21.4-48-48v-928c0-26.6 21.4-48 48-48h672c26.6 0 48 21.4 48 48v656h-272c-26.4 0-48 21.6-48 48zM256 412.8c0-8.84-7.16-16-16-16h-16c-17.68 0-32-14.32-32-32v-64c0-17.68 14.32-32 32-32h16c8.84 0 16-7.16 16-16v-32c0-8.84-7.16-16-16-16h-16c-53.020 0-96 42.98-96 96v64c0 53.020 42.98 96 96 96h16c8.84 0 16-7.16 16-16v-32zM344.54 204.8h-24.54c-8.84 0-16 7.16-16 16v32c0 8.84 7.16 16 16 16h24.54c11.9 0 20.82 7 20.82 13.24 0 2.6-1.5 5.32-4.24 7.68l-43.78 37.54c-16.94 14.44-26.66 34.96-26.66 56.28 0 42.6 38.040 77.24 84.82 77.24h24.5c8.84 0 16-7.16 16-16v-32c0-8.84-7.16-16-16-16h-24.54c-11.9 0-20.82-7-20.82-13.24 0-2.6 1.5-5.32 4.24-7.68l43.78-37.54c16.94-14.44 26.66-34.96 26.66-56.28 0.020-42.58-38-77.24-84.78-77.24zM512 444.8v-41.6c0-40.54 11.4-80.34 32-113.76 20.6 33.4 32 73.22 32 113.76v41.6c0 8.84 7.16 16 16 16h32c8.84 0 16-7.16 16-16v-41.6c0-70.96-25.76-137.78-72.56-188.18-6.040-6.5-14.54-10.22-23.44-10.22s-17.4 3.72-23.44 10.22c-46.8 50.4-72.56 117.22-72.56 188.18v41.6c0 8.84 7.16 16 16 16h32c8.84 0 16-7.16 16-16zM754 762.8l-195.8 196c-9 9-21.2 14-34 14h-12.2v-256h256v12.2c0 12.6-5 24.8-14 33.8z" />
<glyph unicode="&#xe92b;" glyph-name="file-excel" horiz-adv-x="768" d="M448 700.8v272h-400c-26.6 0-48-21.4-48-48v-928c0-26.6 21.4-48 48-48h672c26.6 0 48 21.4 48 48v656h-272c-26.4 0-48 21.6-48 48zM568.2 487.8l-120.2-187 120.2-187c10.2-16-1.2-37-20.2-37h-69.8c-8.8 0-17 4.8-21.2 12.6-39.2 72.4-73 137.4-73 137.4-12.8-29.6-20-40-73.2-137.6-4.2-7.8-12.2-12.6-21-12.6h-69.8c-19 0-30.4 21-20.2 37l120.6 187-120.6 187c-10.4 16 1.2 37 20.2 37h69.6c8.8 0 17-4.8 21.2-12.6 52.2-97.6 40-67.2 73.2-137 0 0 12.2 23.4 73.2 137 4.2 7.8 12.4 12.6 21.2 12.6h69.6c19 0.2 30.4-20.8 20.2-36.8zM768 729v-12.2h-256v256h12.2c12.8 0 25-5 34-14l195.8-196c9-9 14-21.2 14-33.8z" />
<glyph unicode="&#xe92c;" glyph-name="file-export" horiz-adv-x="1152" d="M1134.62 405.020l-143.56 136.32c-16.56 15.6-40.82 19.76-61.68 10.76-20.62-8.84-33.38-27.96-33.38-49.94v-105.36h-128v312.060c0 25.4-10.2 50-28.2 67.98l-167.76 167.76c-18 18-42.4 28.2-67.78 28.2h-408.28c-52.98-0.2-95.98-43.2-95.98-96.18v-831.84c0-52.98 43-95.98 95.98-95.98h576.040c52.98 0 95.98 43 95.98 95.98v224.020h-63.98v-224.020c0-17.6-14.4-32-32-32h-576.040c-17.6 0-32 14.4-32 32v831.84c0 17.6 14.4 32.18 32 32.18h352.080v-208.14c0-26.6 21.4-47.86 48-47.86h207.96v-256h-368.020c-8.84 0-16-7.16-16-16v-32c0-8.84 7.16-16 16-16h560v-105.34c0-21.96 12.76-41.1 33.38-49.94 29.86-12.9 53.76 3.22 61.76 10.78l143.44 136.24c11.24 10.66 17.44 24.96 17.44 40.24s-6.2 29.62-17.4 40.24zM512.060 716.66v190.96c5.6-1.4 10.6-4.2 14.8-8.4l167.76-167.76c4.2-4.2 7-9.2 8.4-14.8h-190.96zM960 247.040v235.52l124-117.76-124-117.76z" />
<glyph unicode="&#xe92d;" glyph-name="file-pdf" horiz-adv-x="768" d="M363.8 460.6c-10 32-9.8 93.8-4 93.8 16.8 0 15.2-73.8 4-93.8zM360.4 366.2c-15.4-40.4-34.6-86.6-56.8-125.4 36.6 14 78 34.4 125.8 43.8-25.4 19.2-49.8 46.8-69 81.6zM172.2 116.6c0-1.6 26.4 10.8 69.8 80.4-13.4-12.6-58.2-49-69.8-80.4zM496 652.8h272v-656c0-26.6-21.4-48-48-48h-672c-26.6 0-48 21.4-48 48v928c0 26.6 21.4 48 48 48h400v-272c0-26.4 21.6-48 48-48zM480 309.2c-40 24.4-66.6 58-85.4 107.6 9 37 23.2 93.2 12.4 128.4-9.4 58.8-84.8 53-95.6 13.6-10-36.6-0.8-88.2 16.2-154-23.2-55.2-57.4-129.2-81.6-171.6-0.2 0-0.2-0.2-0.4-0.2-54.2-27.8-147.2-89-109-136 11.2-13.8 32-20 43-20 35.8 0 71.4 36 122.2 123.6 51.6 17 108.2 38.2 158 46.4 43.4-23.6 94.2-39 128-39 58.4 0 62.4 64 39.4 86.8-27.8 27.2-108.6 19.4-147.2 14.4zM754 762.8l-196 196c-9 9-21.2 14-34 14h-12v-256h256v12.2c0 12.6-5 24.8-14 33.8zM605.8 252.2c8.2 5.4-5 23.8-85.6 18 74.2-31.6 85.6-18 85.6-18z" />
<glyph unicode="&#xe92e;" glyph-name="file-powerpoint" horiz-adv-x="768" d="M387.4 430.4c17.6 0 31-5.4 40.6-16.2 19.2-21.8 19.6-65.4-0.4-88.2-9.8-11.2-23.8-17-42.2-17h-53.8v121.4h55.8zM754 762.8l-196 196c-9 9-21.2 14-34 14h-12v-256h256v12.2c0 12.6-5 24.8-14 33.8zM448 700.8v272h-400c-26.6 0-48-21.4-48-48v-928c0-26.6 21.4-48 48-48h672c26.6 0 48 21.4 48 48v656h-272c-26.4 0-48 21.6-48 48zM554 370.4c0-180.6-177.6-155.2-222.2-155.2v-114.4c0-13.2-10.8-24-24-24h-61.6c-13.2 0-24 10.8-24 24v399.6c0 13.2 10.8 24 24 24h162c89 0 145.8-65.6 145.8-154z" />
<glyph unicode="&#xe92f;" glyph-name="file-word" horiz-adv-x="768" d="M448 700.8v272h-400c-26.6 0-48-21.4-48-48v-928c0-26.6 21.4-48 48-48h672c26.6 0 48 21.4 48 48v656h-272c-26.4 0-48 21.6-48 48zM562.2 460.8h47.8c15.4 0 26.8-14.2 23.4-29.4l-76-336c-2.4-11-12.2-18.6-23.4-18.6h-76c-11 0-20.6 7.6-23.2 18.2-51.6 207-41.6 162.4-51.2 221h-1c-2.2-28.6-4.8-34.8-51.2-221-2.6-10.6-12.2-18.2-23.2-18.2h-74.2c-11.2 0-21 7.8-23.4 18.8l-75.6 336c-3.4 15 8 29.2 23.4 29.2h49c11.4 0 21.4-8 23.6-19.4 31.2-156 40.2-219 42-244.4 3.2 20.4 14.6 65.4 58.8 245.4 2.6 10.8 12.2 18.2 23.4 18.2h58.2c11.2 0 20.8-7.6 23.4-18.4 48-200.8 57.6-248 59.2-258.8-0.4 22.4-5.2 35.6 43.2 258.4 2 11.2 11.8 19 23 19zM768 729v-12.2h-256v256h12.2c12.8 0 25-5 34-14l195.8-196c9-9 14-21.2 14-33.8z" />
<glyph unicode="&#xe930;" glyph-name="id-card" horiz-adv-x="1152" d="M720 268.8h224c8.8 0 16 7.2 16 16v32c0 8.8-7.2 16-16 16h-224c-8.8 0-16-7.2-16-16v-32c0-8.8 7.2-16 16-16zM720 396.8h224c8.8 0 16 7.2 16 16v32c0 8.8-7.2 16-16 16h-224c-8.8 0-16-7.2-16-16v-32c0-8.8 7.2-16 16-16zM720 140.8h224c8.8 0 16 7.2 16 16v32c0 8.8-7.2 16-16 16h-224c-8.8 0-16-7.2-16-16v-32c0-8.8 7.2-16 16-16zM384 204.8c88.4 0 160 71.6 160 160s-71.6 160-160 160-160-71.6-160-160 71.6-160 160-160zM384 460.8c53 0 96-43 96-96s-43-96-96-96-96 43-96 96 43 96 96 96zM1024 844.8h-896c-70.6 0-128-57.4-128-128v-640c0-70.6 57.4-128 128-128h896c70.6 0 128 57.4 128 128v640c0 70.6-57.4 128-128 128zM544 12.8h-320v30.2c0 14 4.2 27.6 12 39.2 11.2 16.6 31.6 26.4 54.6 26.4 24.8 0 41.6-14 93.6-14 51.8 0 68.6 14 93.6 14 23 0 43.4-10 54.6-26.4 7.8-11.6 12-25.2 12-39.2v-30.2zM1088 76.8c0-35.2-28.8-64-64-64h-416v30.2c0 27.8-8.4 53.6-22.8 75-24.2 35.8-65.4 54.8-107.6 54.8-39 0-48.8-14-93.6-14s-54.6 14-93.6 14c-42.4 0-83.6-18.8-107.6-54.8-14.4-21.4-22.8-47.2-22.8-75v-30.2h-32c-35.2 0-64 28.8-64 64v512h1024v-512zM1088 652.8h-1024v64c0 35.2 28.8 64 64 64h896c35.2 0 64-28.8 64-64v-64z" />
<glyph unicode="&#xe931;" glyph-name="info-circle" d="M512 956.8c-273.914 0-496-222.166-496-496 0-273.994 222.086-496 496-496s496 222.006 496 496c0 273.834-222.086 496-496 496zM512 736.8c46.392 0 84-37.608 84-84s-37.608-84-84-84-84 37.608-84 84 37.608 84 84 84zM624 228.8c0-13.254-10.746-24-24-24h-176c-13.254 0-24 10.746-24 24v48c0 13.254 10.746 24 24 24h24v128h-24c-13.254 0-24 10.746-24 24v48c0 13.254 10.746 24 24 24h128c13.254 0 24-10.746 24-24v-200h24c13.254 0 24-10.746 24-24v-48z" />
<glyph unicode="&#xe932;" glyph-name="list" d="M1000 724.8h-720c-13.254 0-24 10.746-24 24v64c0 13.254 10.746 24 24 24h720c13.254 0 24-10.746 24-24v-64c0-13.254-10.746-24-24-24zM1024 428.8v64c0 13.254-10.746 24-24 24h-720c-13.254 0-24-10.746-24-24v-64c0-13.254 10.746-24 24-24h720c13.254 0 24 10.746 24 24zM1024 108.8v64c0 13.254-10.746 24-24 24h-720c-13.254 0-24-10.746-24-24v-64c0-13.254 10.746-24 24-24h720c13.254 0 24 10.746 24 24zM184 716.8v128c0 13.254-10.746 24-24 24h-128c-13.254 0-24-10.746-24-24v-128c0-13.254 10.746-24 24-24h128c13.254 0 24 10.746 24 24zM184 396.8v128c0 13.254-10.746 24-24 24h-128c-13.254 0-24-10.746-24-24v-128c0-13.254 10.746-24 24-24h128c13.254 0 24 10.746 24 24zM184 76.8v128c0 13.254-10.746 24-24 24h-128c-13.254 0-24-10.746-24-24v-128c0-13.254 10.746-24 24-24h128c13.254 0 24 10.746 24 24z" />
<glyph unicode="&#xe933;" glyph-name="list-alt-old" d="M928 908.8h-832c-53.020 0-96-42.98-96-96v-704c0-53.020 42.98-96 96-96h832c53.020 0 96 42.98 96 96v704c0 53.020-42.98 96-96 96zM916 108.8h-808c-6.627 0-12 5.373-12 12v0 680c0 6.627 5.373 12 12 12v0h808c6.627 0 12-5.373 12-12v0-680c0-6.627-5.373-12-12-12v0zM832 292.8v-48c0-13.254-10.746-24-24-24h-400c-13.254 0-24 10.746-24 24v48c0 13.254 10.746 24 24 24h400c13.254 0 24-10.746 24-24zM832 484.8v-48c0-13.254-10.746-24-24-24h-400c-13.254 0-24 10.746-24 24v48c0 13.254 10.746 24 24 24h400c13.254 0 24-10.746 24-24zM832 676.8v-48c0-13.254-10.746-24-24-24h-400c-13.254 0-24 10.746-24 24v48c0 13.254 10.746 24 24 24h400c13.254 0 24-10.746 24-24zM328 652.8c0-39.764-32.236-72-72-72s-72 32.236-72 72 32.236 72 72 72 72-32.236 72-72zM328 460.8c0-39.764-32.236-72-72-72s-72 32.236-72 72 32.236 72 72 72 72-32.236 72-72zM328 268.8c0-39.764-32.236-72-72-72s-72 32.236-72 72 32.236 72 72 72 72-32.236 72-72z" />
<glyph unicode="&#xe934;" glyph-name="magic" d="M448 780.8l32 64 64 32-64 32-32 64-32-64-64-32 64-32 32-64zM160 652.8l53.32 106.66 106.68 53.34-106.68 53.34-53.32 106.66-53.32-106.66-106.68-53.34 106.68-53.34 53.32-106.66zM160 844.8c17.68 0 32-14.32 32-32s-14.32-32-32-32-32 14.32-32 32 14.32 32 32 32zM864 396.8l-53.32-106.66-106.68-53.34 106.68-53.34 53.32-106.66 53.32 106.66 106.68 53.34-106.68 53.34-53.32 106.66zM864 204.8c-17.68 0-32 14.32-32 32s14.32 32 32 32 32-14.32 32-32-14.32-32-32-32zM1005.26 816.88l-137.18 137.18c-12.5 12.5-28.88 18.74-45.26 18.74s-32.76-6.24-45.26-18.74l-758.82-758.84c-25-25-25-65.52 0-90.5l137.18-137.18c12.5-12.5 28.88-18.74 45.26-18.74s32.76 6.24 45.26 18.74l758.82 758.82c24.98 25 24.98 65.52 0 90.52zM201.18 12.8l-137.18 137.18 516.76 516.8 137.2-137.2-516.78-516.78zM763.22 574.84l-137.2 137.2 196.8 196.76 137.18-137.18-196.78-196.78z" />
<glyph unicode="&#xe935;" glyph-name="mail-bulk" horiz-adv-x="1280" d="M1184 780.8h-704c-52.94 0-96-43.060-96-96v-32h64v32c0 17.68 14.32 32 32 32h704c17.68 0 32-14.32 32-32v-448c0-17.68-14.32-32-32-32h-352v-64h352c52.94 0 96 43.060 96 96v448c0 52.94-43.060 96-96 96zM192 876.8c0 17.68 14.32 32 32 32h576c17.68 0 32-14.32 32-32v-32h64v32c0 52.94-43.060 96-96 96h-576c-52.94 0-96-43.060-96-96v-224h64v224zM1120 460.8c17.68 0 32 14.32 32 32v128c0 17.68-14.32 32-32 32h-128c-17.68 0-32-14.32-32-32v-128c0-17.68 14.32-32 32-32h128zM1024 588.8h64v-64h-64v64zM672 588.8h-576c-52.94 0-96-43.060-96-96v-448c0-52.94 43.060-96 96-96h576c52.94 0 96 43.060 96 96v448c0 52.94-43.060 96-96 96zM704 44.8c0-17.68-14.32-32-32-32h-576c-17.68 0-32 14.32-32 32v300.8c25.6-19.2 64-51.2 192-140.8 25.6-19.2 76.8-64 128-64s102.4 44.8 128 64c128 89.6 166.4 121.6 192 140.8v-300.8zM704 422.4c-51.2-38.4-44.8-38.4-230.4-172.8-19.2-6.4-57.6-44.8-89.6-44.8s-70.4 38.4-89.6 51.2c-185.6 134.4-179.2 134.4-230.4 172.8v64c0 17.68 14.32 32 32 32h576c17.68 0 32-14.32 32-32v-70.4z" />
<glyph unicode="&#xe936;" glyph-name="mobile-android-alt" horiz-adv-x="640" d="M544 972.8h-448c-53 0-96-43-96-96v-832c0-53 43-96 96-96h448c53 0 96 43 96 96v832c0 53-43 96-96 96zM416 68.8c0-13.2-10.8-24-24-24h-144c-13.2 0-24 10.8-24 24v16c0 13.2 10.8 24 24 24h144c13.2 0 24-10.8 24-24v-16zM544 228.8c0-13.2-10.8-24-24-24h-400c-13.2 0-24 10.8-24 24v624c0 13.2 10.8 24 24 24h400c13.2 0 24-10.8 24-24v-624z" />
<glyph unicode="&#xe937;" glyph-name="paste" horiz-adv-x="896" d="M867.882 584.918l-103.764 103.764c-17.373 17.373-41.372 28.118-67.882 28.118h-56.236v96c0 53.020-42.98 96-96 96h-133.504c-13.21 37.246-48.78 64-90.496 64s-77.286-26.754-90.496-64h-133.504c-53.020 0-96-42.98-96-96v-576c0-53.020 42.98-96 96-96h160v-96c0-53.020 42.98-96 96-96h448c53.020 0 96 42.98 96 96v472.236c0 26.51-10.745 50.509-28.118 67.882v0zM822.628 539.664c3.983-3.98 6.915-9.013 8.343-14.644l0.047-0.22h-127.018v127.018c5.851-1.475 10.883-4.406 14.862-8.39v0l103.766-103.764zM320 912.8c19.882 0 36-16.118 36-36s-16.118-36-36-36-36 16.118-36 36 16.118 36 36 36zM96 204.8c-17.644 0-32 14.356-32 32v576c0 17.644 14.356 32 32 32h133.504c13.21-37.246 48.778-64 90.496-64s77.286 26.754 90.496 64h133.504c17.644 0 32-14.356 32-32v-96h-224c-53.020 0-96-42.98-96-96v-416h-160zM800 12.8h-448c-17.644 0-32 14.356-32 32v576c0 17.644 14.356 32 32 32h288v-144c0-26.4 21.6-48 48-48h144v-416c0-17.644-14.356-32-32-32z" />
<glyph unicode="&#xe938;" glyph-name="pen-nib" d="M273.2 695.22c-40.974-11.846-72.943-42.523-86.353-81.799l-0.267-0.901-186.58-559.72 29.38-29.38 300.22 300.22c-5.98 12.52-9.6 26.36-9.6 41.16 0 53.020 42.98 96 96 96s96-42.98 96-96-42.98-96-96-96c-14.8 0-28.64 3.62-41.16 9.6l-300.22-300.22 29.38-29.38 559.72 186.58c40.177 13.677 70.854 45.646 82.475 85.716l0.225 0.904 85.58 302.8-256 256-302.8-85.58zM995.88 824.46l-120.22 120.22c-37.5 37.5-98.32 37.5-135.82 0l-113.1-113.1 256.040-256.040 113.1 113.1c37.5 37.5 37.5 98.3 0 135.82z" />
<glyph unicode="&#xe939;" glyph-name="poll" horiz-adv-x="896" d="M800 908.8h-704c-53 0-96-43-96-96v-704c0-53 43-96 96-96h704c53 0 96 43 96 96v704c0 53-43 96-96 96zM832 108.8c0-17.64-14.36-32-32-32h-704c-17.64 0-32 14.36-32 32v704c0 17.64 14.36 32 32 32h704c17.64 0 32-14.36 32-32v-704zM272 524.8h-32c-8.84 0-16-7.16-16-16v-288c0-8.84 7.16-16 16-16h32c8.84 0 16 7.16 16 16v288c0 8.84-7.16 16-16 16zM464 716.8h-32c-8.84 0-16-7.16-16-16v-480c0-8.84 7.16-16 16-16h32c8.84 0 16 7.16 16 16v480c0 8.84-7.16 16-16 16zM656 396.8h-32c-8.84 0-16-7.16-16-16v-160c0-8.84 7.16-16 16-16h32c8.84 0 16 7.16 16 16v160c0 8.84-7.16 16-16 16z" />
<glyph unicode="&#xe93a;" glyph-name="file-invoice" horiz-adv-x="768" d="M624 140.8h-160c-8.84 0-16-7.16-16-16v-32c0-8.84 7.16-16 16-16h160c8.84 0 16 7.16 16 16v32c0 8.84-7.16 16-16 16zM128 492.8v-192c0-17.68 16.38-32 36.58-32h438.86c20.2 0 36.58 14.32 36.58 32v192c0 17.68-16.38 32-36.58 32h-438.86c-20.2 0-36.58-14.32-36.58-32zM192 460.8h384v-128h-384v128zM144 780.8h224c8.84 0 16 7.16 16 16v32c0 8.84-7.16 16-16 16h-224c-8.84 0-16-7.16-16-16v-32c0-8.84 7.16-16 16-16zM144 652.8h224c8.84 0 16 7.16 16 16v32c0 8.84-7.16 16-16 16h-224c-8.84 0-16-7.16-16-16v-32c0-8.84 7.16-16 16-16zM739.8 776.84l-167.76 167.76c-18 18-42.4 28.2-67.78 28.2h-408.28c-52.98-0.2-95.98-43.2-95.98-96.18v-831.84c0-52.98 43-95.98 95.98-95.98h576.040c52.98 0 95.98 43 95.98 95.98v664.080c0 25.38-10.2 49.98-28.2 67.98zM512.060 907.62c5.6-1.4 10.6-4.2 14.8-8.4l167.76-167.76c4.2-4.2 7-9.2 8.4-14.8h-190.96v190.96zM704.020 44.78c0-17.6-14.4-32-32-32h-576.040c-17.6 0-32 14.4-32 32v831.84c0 17.6 14.4 32.18 32 32.18h352.080v-208.14c0-26.6 21.4-47.86 48-47.86h207.96v-608.020z" />
<glyph unicode="&#xe93b;" glyph-name="presentation" horiz-adv-x="1152" d="M1120 972.8h-1088c-17.68 0-32-14.32-32-32v-32c0-17.68 14.32-32 32-32h32v-544c0-35.34 28.66-64 64-64h400v-87.44l-155.3-155.3c-12.5-12.5-12.5-32.76 0-45.26l22.62-22.62c12.5-12.5 32.76-12.5 45.26 0l135.42 135.42 135.44-135.44c12.5-12.5 32.76-12.5 45.26 0l22.6 22.64c12.5 12.5 12.5 32.76 0 45.26l-155.3 155.3v87.44h400c35.34 0 64 28.66 64 64v544h32c17.68 0 32 14.32 32 32v32c0 17.68-14.32 32-32 32zM992 364.8h-832v512h832v-512z" />
<glyph unicode="&#xe93c;" glyph-name="print" d="M800 444.8c-26.5 0-48-21.48-48-48 0-26.5 21.5-48 48-48s48 21.5 48 48c0 26.52-21.5 48-48 48zM864 620.8v152.24c0 25.46-10.12 49.88-28.12 67.88l-103.76 103.76c-18 18-42.42 28.12-67.88 28.12h-443.28c-33.68 0-60.96-28.66-60.96-64v-288c-88.36 0-160-71.64-160-160v-256c0-17.68 14.32-32 32-32h128v-192c0-17.68 14.32-32 32-32h640c17.68 0 32 14.32 32 32v192h128c17.68 0 32 14.32 32 32v256c0 88.36-71.64 160-160 160zM256 876.8h384v-96c0-17.68 14.32-32 32-32h96v-128h-512v256zM768 44.8h-512v128h512v-128zM928 268.8h-832v192c0 35.28 28.72 64 64 64h704c35.28 0 64-28.72 64-64v-192z" />
<glyph unicode="&#xe93d;" glyph-name="ballot-check" horiz-adv-x="896" d="M224 108.8h64c35.4 0 64 28.8 64 64v64c0 35.2-28.6 64-64 64h-64c-35.4 0-64-28.8-64-64v-64c0-35.2 28.6-64 64-64zM224 236.8h64v-64h-64v64zM224 620.8h64c35.4 0 64 28.8 64 64v64c0 35.2-28.6 64-64 64h-64c-35.4 0-64-28.8-64-64v-64c0-35.2 28.6-64 64-64zM224 748.8h64v-64h-64v64zM832 972.8h-768c-35.4 0-64-28.8-64-64v-896c0-35.2 28.6-64 64-64h768c35.4 0 64 28.8 64 64v896c0 35.2-28.6 64-64 64zM832 12.8h-768v896h768v-896zM432 684.8h256c8.8 0 16 7.2 16 16v32c0 8.8-7.2 16-16 16h-256c-8.8 0-16-7.2-16-16v-32c0-8.8 7.2-16 16-16zM432 428.8h256c8.8 0 16 7.2 16 16v32c0 8.8-7.2 16-16 16h-256c-8.8 0-16-7.2-16-16v-32c0-8.8 7.2-16 16-16zM432 172.8h256c8.8 0 16 7.2 16 16v32c0 8.8-7.2 16-16 16h-256c-8.8 0-16-7.2-16-16v-32c0-8.8 7.2-16 16-16zM237.2 400c4.2-4.2 11-4.2 15.2 0l128.4 127.2c4.2 4.2 4.2 11 0 15.2l-25.2 25.4c-4.2 4.2-11 4.2-15.2 0l-95.2-94.4-41.2 41.8c-4.2 4.2-11 4.2-15.2 0l-25.4-25.2c-4.2-4.2-4.2-11 0-15.2l73.8-74.8z" />
<glyph unicode="&#xe93e;" glyph-name="question-circle" d="M512 292.8c-30.928 0-56-25.072-56-56s25.072-56 56-56 56 25.072 56 56-25.072 56-56 56zM527.34 340.8h-32c-13.254 0-24 10.746-24 24v0.762c0 140.686 154.88 127.238 154.88 214.816 0 40.032-35.522 80.422-114.88 80.422-58.288 0-88.53-19.298-118.422-57.384-7.816-9.96-22.108-11.99-32.496-4.752l-26.268 18.3c-11.25 7.838-13.72 23.542-5.29 34.354 42.452 54.454 92.82 89.482 182.476 89.482 104.64 0 194.88-59.502 194.88-160.422 0-134.828-154.88-127.698-154.88-214.816v-0.762c0-13.254-10.746-24-24-24zM512 892.8c237.242 0 432-192.15 432-432 0-238.582-193.22-432-432-432-238.488 0-432 193.124-432 432 0 238.406 193.204 432 432 432zM512 956.8c-273.914 0-496-222.166-496-496 0-273.994 222.086-496 496-496s496 222.006 496 496c0 273.834-222.086 496-496 496z" />
<glyph unicode="&#xe93f;" glyph-name="retweet-alt" horiz-adv-x="1280" d="M1215.948 332.8h-127.948v400c0 26.51-21.49 48-48 48h-535.952c-21.996 0-32.404-27.124-16.056-41.838l17.778-16c4.234-3.823 9.872-6.162 16.056-6.162h502.174v-384h-127.936c-58.478 0-86.354-72.384-42.814-111.57l159.938-144c24.338-21.904 61.288-21.906 85.628 0l159.948 144c43.462 39.118 15.764 111.57-42.816 111.57zM1056 124.8l-160 144h320l-160-144zM792.006 182.64l-17.778 16c-4.234 3.822-9.871 6.16-16.054 6.16-0.001 0-0.001 0-0.002 0h-502.172v384h127.936c58.478 0 86.354 72.384 42.814 111.57l-159.936 144c-24.338 21.904-61.288 21.906-85.628 0l-159.948-144c-43.466-39.118-15.762-111.57 42.814-111.57h127.948v-400c0-26.51 21.49-48 48-48h535.952c21.996 0 32.404 27.124 16.054 41.84zM64 652.8l160 144 160-144h-320z" />
<glyph unicode="&#xe940;" glyph-name="sign-out-alt" d="M320 538.6c0 17.6 14.4 32 32 32h288v187.8c0 14.2 17.2 21.4 27.2 11.4l283.2-286.2c12.6-12.6 12.6-32.8 0-45.4l-283.2-286.2c-10-10-27.2-3-27.2 11.4v187.8h-288c-17.6 0-32 14.4-32 32v155.4zM256 538.6v-155.4c0-53 43-96 96-96h224v-123.8c0-71 86-107 136.4-56.6l283.4 286c37.6 37.6 37.6 98.4 0 136l-283.4 286.2c-50.2 50.2-136.4 14.6-136.4-56.6v-123.8h-224c-53 0-96-43.2-96-96zM0 748.8v-576c0-53 43-96 96-96h264c13.2 0 24 10.8 24 24v16c0 13.2-10.8 24-24 24h-264c-17.6 0-32 14.4-32 32v576c0 17.6 14.4 32 32 32h264c13.2 0 24 10.8 24 24v16c0 13.2-10.8 24-24 24h-264c-53 0-96-43-96-96z" />
<glyph unicode="&#xe941;" glyph-name="sliders-h" d="M992 828.8h-416v48c0 17.6-14.4 32-32 32h-64c-17.6 0-32-14.4-32-32v-48h-416c-17.6 0-32-14.4-32-32v-32c0-17.6 14.4-32 32-32h416v-48c0-17.6 14.4-32 32-32h64c17.6 0 32 14.4 32 32v48h416c17.6 0 32 14.4 32 32v32c0 17.6-14.4 32-32 32zM992 188.8h-672v48c0 17.6-14.4 32-32 32h-64c-17.6 0-32-14.4-32-32v-48h-160c-17.6 0-32-14.4-32-32v-32c0-17.6 14.4-32 32-32h160v-48c0-17.6 14.4-32 32-32h64c17.6 0 32 14.4 32 32v48h672c17.6 0 32 14.4 32 32v32c0 17.6-14.4 32-32 32zM992 508.8h-160v48c0 17.6-14.4 32-32 32h-64c-17.6 0-32-14.4-32-32v-48h-672c-17.6 0-32-14.4-32-32v-32c0-17.6 14.4-32 32-32h672v-48c0-17.6 14.4-32 32-32h64c17.6 0 32 14.4 32 32v48h160c17.6 0 32 14.4 32 32v32c0 17.6-14.4 32-32 32z" />
<glyph unicode="&#xe942;" glyph-name="star" horiz-adv-x="1152" d="M518.6 937.2l-130.6-264.8-292.2-42.6c-52.4-7.6-73.4-72.2-35.4-109.2l211.4-206-50-291c-9-52.6 46.4-92 92.8-67.4l261.4 137.4 261.4-137.4c46.4-24.4 101.8 14.8 92.8 67.4l-50 291 211.4 206c38 37 17 101.6-35.4 109.2l-292.2 42.6-130.6 264.8c-23.4 47.2-91.2 47.8-114.8 0z" />
<glyph unicode="&#xe943;" glyph-name="stream" d="M32 716.8h832c17.68 0 32 14.32 32 32v64c0 17.68-14.32 32-32 32h-832c-17.68 0-32-14.32-32-32v-64c0-17.68 14.32-32 32-32zM992 524.8h-832c-17.68 0-32-14.32-32-32v-64c0-17.68 14.32-32 32-32h832c17.68 0 32 14.32 32 32v64c0 17.68-14.32 32-32 32zM864 204.8h-832c-17.68 0-32-14.32-32-32v-64c0-17.68 14.32-32 32-32h832c17.68 0 32 14.32 32 32v64c0 17.68-14.32 32-32 32z" />
<glyph unicode="&#xe944;" glyph-name="participants-list" horiz-adv-x="1320" d="M582.644 383.444c70.6 0 128 57.4 128 128s-57.4 128-128 128c-70.6 0-128-57.4-128-128s57.4-128 128-128zM403.444 127.444h358.4c24.8 0 44.8 17.2 44.8 38.4v38.4c0 63.6-60.2 115.2-134.4 115.2-21.6 0-37.4-16-89.6-16-53.8 0-66.8 16-89.6 16-74.2 0-134.4-51.6-134.4-115.2v-38.4c0-21.2 20-38.4 44.8-38.4zM129.091 971.64c-70.6 0-128-57.4-128-128v-640c0-70.6 57.4-128 128-128h36.16c-0.003 0.388-0.031 0.771-0.031 1.16v62.84h-36.129c-35.2 0-64 28.8-64 64v640c0 35.2 28.8 64 64 64h896c34.811 0 63.346-28.171 63.973-62.84l-0.001-40h63.998l-0.001 40c-0.628 70.065-57.758 126.84-127.969 126.84zM1188.678 805.139h-896c-70.6 0-128-57.4-128-128v-600c0-70.6 57.4-128 128-128h896c70.6 0 128 57.4 128 128v600c0 70.6-57.4 128-128 128zM1252.678 77.139c0-35.2-28.8-64-64-64h-896c-35.2 0-64 28.8-64 64v600c0 35.2 28.8 64 64 64h896c35.2 0 64-28.8 64-64zM1108.678 273.139h-224c-8.8 0-16-7.2-16-16v-32c0-8.8 7.2-16 16-16h224c8.8 0 16 7.2 16 16v32c0 8.8-7.2 16-16 16zM1108.678 401.139h-224c-8.8 0-16-7.2-16-16v-32c0-8.8 7.2-16 16-16h224c8.8 0 16 7.2 16 16v32c0 8.8-7.2 16-16 16zM1108.678 529.139h-224c-8.8 0-16-7.2-16-16v-32c0-8.8 7.2-16 16-16h224c8.8 0 16 7.2 16 16v32c0 8.8-7.2 16-16 16z" />
<glyph unicode="&#xe945;" glyph-name="table" d="M928 908.8h-832c-53.020 0-96-42.98-96-96v-704c0-53.020 42.98-96 96-96h832c53.020 0 96 42.98 96 96v704c0 53.020-42.98 96-96 96zM320 76.8h-224c-17.674 0-32 14.326-32 32v160h256v-192zM320 332.8h-256v192h256v-192zM320 588.8h-256v192h256v-192zM640 76.8h-256v192h256v-192zM640 332.8h-256v192h256v-192zM640 588.8h-256v192h256v-192zM960 268.8v-160c0-17.674-14.326-32-32-32h-224v192h256zM960 332.8h-256v192h256v-192zM960 588.8h-256v192h256v-192z" />
<glyph unicode="&#xe946;" glyph-name="submissions-reviews-alt" horiz-adv-x="1144" d="M96.411 781.304c-53.020 0-96-42.98-96-96v-640c0-53.020 42.98-96 96-96h448c53.020 0 96 42.98 96 96v536.238c0 25.461-10.114 49.876-28.117 67.879l-103.766 103.766c-18.003 18.004-42.422 28.117-67.883 28.117zM96.411 717.304h288v-144c0-26.4 21.61-47.267 48-48h144v-480c0-17.644-14.356-32-32-32h-448c-17.644 0-32 14.356-32 32v640c0 17.644 14.356 32 32 32zM448.411 716.323c5.627-1.388 10.768-4.29 14.863-8.391l103.762-103.766c4.1-4.096 7.002-9.237 8.391-14.863h-127.016zM1045.085 844.664h-444c-52.94 0-96-43.060-96-96v-32l64-32v64c0 17.68 14.32 32 32 32h444c17.68 0 32-14.32 32-32v-628c0-17.68-14.32-32-32-32h-412v-64h412c52.94 0 96 43.060 96 96v628c0 52.94-43.060 96-96 96zM193.085 876.664c0 17.68 14.32 32 32 32h448c17.68 0 32-14.32 32-32v-32h64v32c0 52.94-43.060 96-96 96h-448c-52.94 0-96-43.060-96-96v-144h64z" />
<glyph unicode="&#xe947;" glyph-name="ticket-alt" horiz-adv-x="1152" d="M800 556.8v-192h-448v192h448zM848 652.8h-544c-26.51 0-48-21.49-48-48v-288c0-26.51 21.49-48 48-48h544c26.51 0 48 21.49 48 48v288c0 26.51-21.49 48-48 48zM1136 540.8h16v208c0 53.020-42.98 96-96 96h-960c-53.020 0-96-42.98-96-96v-208h16c44.182 0 80-35.818 80-80s-35.818-80-80-80h-16v-208c0-53.020 42.98-96 96-96h960c53.020 0 96 42.98 96 96v208h-16c-44.182 0-80 35.818-80 80s35.818 80 80 80zM1056 617.544c-56.94-29.18-96-88.486-96-156.744s39.060-127.564 96-156.744v-131.256h-960v131.256c56.942 29.18 96 88.486 96 156.744s-39.058 127.564-96 156.744v131.256h960v-131.256z" />
<glyph unicode="&#xe948;" glyph-name="times" horiz-adv-x="640" d="M415.2 460.8l215.44 215.44c12.46 12.46 12.46 32.68 0 45.16l-50.060 50.060c-12.46 12.46-32.68 12.46-45.16 0l-215.42-215.46-215.44 215.44c-12.46 12.46-32.68 12.46-45.16 0l-50.040-50.040c-12.46-12.46-12.46-32.68 0-45.16l215.44-215.44-215.44-215.44c-12.46-12.46-12.46-32.68 0-45.16l50.060-50.060c12.46-12.46 32.68-12.46 45.16 0l215.42 215.46 215.44-215.44c12.46-12.46 32.68-12.46 45.16 0l50.060 50.060c12.46 12.46 12.46 32.68 0 45.16l-215.46 215.42z" />
<glyph unicode="&#xe949;" glyph-name="user" horiz-adv-x="896" d="M627.2 396.8c-57.4 0-85-32-179.2-32s-121.6 32-179.2 32c-148.4 0-268.8-120.4-268.8-268.8v-83.2c0-53 43-96 96-96h704c53 0 96 43 96 96v83.2c0 148.4-120.4 268.8-268.8 268.8zM832 44.8c0-17.6-14.4-32-32-32h-704c-17.6 0-32 14.4-32 32v83.2c0 113 91.8 204.8 204.8 204.8 39.2 0 78.2-32 179.2-32 100.8 0 140 32 179.2 32 113 0 204.8-91.8 204.8-204.8v-83.2zM448 460.8c141.4 0 256 114.6 256 256s-114.6 256-256 256-256-114.6-256-256 114.6-256 256-256zM448 908.8c105.8 0 192-86.2 192-192s-86.2-192-192-192-192 86.2-192 192 86.2 192 192 192z" />
<glyph unicode="&#xe94a;" glyph-name="user-edit" horiz-adv-x="1280" d="M448 460.8c141.4 0 256 114.6 256 256s-114.6 256-256 256-256-114.6-256-256 114.6-256 256-256zM448 908.8c105.8 0 192-86.2 192-192s-86.2-192-192-192-192 86.2-192 192 86.2 192 192 192zM1261.2 500.6l-69.4 69.4c-12.6 12.6-29 18.8-45.6 18.8-16.4 0-33-6.2-45.6-18.8l-445-445.2-15.2-136.4c-2.4-21.4 14.4-39.6 35.4-39.6 1.4 0 2.6 0 4 0.2l136.4 15.2 445 445c25 25.4 25 66.2 0 91.4zM786.6 25.4l-78.8-9 8.8 79 313.8 313.8 70-70-313.8-313.8zM1145.6 384.4l-70 70 70.4 70.4h0.2l0.4-0.2 69.4-70-70.4-70.2zM268.8 332.8c39.2 0 78.2-32 179.2-32 100.8 0 140 32 179.2 32 41.4 0 79.8-12.6 112-33.8l45.6 45.6c-44.4 32.4-98.6 52-157.6 52-57.4 0-85-32-179.2-32s-121.6 32-179.2 32c-148.4 0.2-268.8-120.2-268.8-268.6v-83.2c0-53 43-96 96-96h487c-5.6 14.8-8.2 30.8-6.4 46.8l2 17.2h-482.6c-17.6 0-32 14.4-32 32v83.2c0 113 91.8 204.8 204.8 204.8z" />
<glyph unicode="&#xe94b;" glyph-name="user-friends" horiz-adv-x="1280" d="M960 460.8c106 0 192 86 192 192s-86 192-192 192-192-86-192-192 86-192 192-192zM960 780.8c70.6 0 128-57.4 128-128s-57.4-128-128-128-128 57.4-128 128 57.4 128 128 128zM384 460.8c123.8 0 224 100.2 224 224s-100.2 224-224 224-224-100.2-224-224 100.2-224 224-224zM384 844.8c88.2 0 160-71.8 160-160s-71.8-160-160-160-160 71.8-160 160 71.8 160 160 160zM544.2 420.8c-66.8 0-83.4-24-160.2-24s-93.4 24-160.2 24c-72.6 0-143.2-32.4-184.6-93.8-24.8-36.8-39.2-81-39.2-128.6v-89.6c0-53 43-96 96-96h576c53 0 96 43 96 96v89.6c0 47.6-14.4 91.8-39.2 128.6-41.4 61.4-112 93.8-184.6 93.8zM704 108.8c0-17.6-14.4-32-32-32h-576c-17.6 0-32 14.4-32 32v89.6c0 33.2 9.8 65.4 28.2 92.8 27.6 41 76.8 65.6 131.4 65.6 54.8 0 74.4-24 160.4-24s105.6 24 160.2 24c54.6 0 103.8-24.6 131.4-65.6 18.4-27.4 28.2-59.6 28.2-92.8v-89.6zM1247.4 338.6c-34.6 51.2-93.4 78.2-153.8 78.2-55.6 0-69.6-20-133.6-20s-78 20-133.6 20c-26.4 0-52.2-6-76.2-16.2 30.4-30.8 37-47.2 40.4-53.2 11.4 3.2 23.2 5.2 35.8 5.2 43.6 0 60-20 133.6-20s90 20 133.6 20c42 0 79.6-18.6 100.8-50 14.2-21 21.8-45.8 21.8-71.4v-74.4c0-8.8-7.2-16-16-16h-368.2c0-35.4 0.6-45-3.2-64h371.2c44.2 0 80 35.8 80 80v74.6c0 39.8-12 76.6-32.6 107.2z" />
<glyph unicode="&#xe94c;" glyph-name="user-graduate" horiz-adv-x="896" d="M638.8 331.6l-190.8-190.8-190.8 190.8c-143-6.2-257.2-123.2-257.2-267.6v-19.2c0-53 43-96 96-96h704c53 0 96 43 96 96v19.2c0 144.4-114.2 261.4-257.2 267.6zM27.2 813.2l12.8-3v-116.8c-14-8.4-24-23-24-40.6 0-16.8 9.2-30.8 22.2-39.4l-31.2-124.6c-3.4-13.8 4.2-28 15.2-28h83.6c11 0 18.6 14.2 15.2 28l-31.2 124.6c13 8.6 22.2 22.6 22.2 39.4 0 17.6-10 32.2-24 40.6v105.2l132-31.8c-17.2-34.4-28-72.8-28-114 0-141.4 114.6-256 256-256s256 114.6 256 256c0 41.2-10.6 79.6-28 114l192.6 46.4c36.4 8.8 36.4 54.2 0 63l-380.8 92c-26 6.2-53.4 6.2-79.4 0l-381.2-91.8c-36.2-8.8-36.2-54.4 0-63.2z" />
<glyph unicode="&#xe94d;" glyph-name="user-graduate1" horiz-adv-x="896" d="M638.8 331.6l-190.8-158.8-190.8 158.8c-36.8-1.6-257.2-31-257.2-286.8 0-53 43-96 96-96h704c53 0 96 43 96 96 0 255.8-220.2 285.2-257.2 286.8zM416 12.8h-320c-17.6 0-32 14.4-32 32 0 199.2 168.2 219.8 172.8 220.6l179.2-149.2v-103.4zM832 44.8c0-17.6-14.4-32-32-32h-320v103.4l179.2 149.2c4.6-0.8 172.8-21.4 172.8-220.6zM26.4 772.8l13.6-4v-75.2c-14-8.4-24-23-24-40.6 0-16.8 9.2-30.8 22.2-39.4l-31.2-124.8c-3.4-13.8 4.2-28 15.2-28h83.6c11 0 18.6 14.2 15.2 28l-31.2 124.6c13 8.6 22.2 22.6 22.2 39.4 0 17.6-10 32.2-24 40.6v61l93.4-27.6c-13.4-32.8-21.4-68.4-21.4-106 0-159 129-288 288-288s288 129 288 288c0 37.6-8 73.2-21.4 106l155 46c35.2 10.4 35.2 69.6 0 80l-387.8 115c-11.2 3.4-22.4 5-33.8 5s-22.6-1.6-33.8-5l-387.8-115c-35.2-10.4-35.2-69.6 0-80zM448 396.8c-123.6 0-224 100.4-224 224 0 31.4 7.4 60.6 19.2 87.6l171-50.8c29.6-8.8 54.4-4 67.6 0l171 50.8c11.8-27 19.2-56.4 19.2-87.6 0-123.6-100.4-224-224-224zM432.4 906.6c1.6 0.4 14.6 4.8 31.2 0l316-93.8-316-93.8c-1.6-0.4-14.6-4.8-31.2 0l-316 93.8 316 93.8z" />
<glyph unicode="&#xe94e;" glyph-name="users" horiz-adv-x="1280" d="M1088 524.8c88.4 0 160 71.6 160 160s-71.6 160-160 160-160-71.6-160-160 71.6-160 160-160zM1088 780.8c53 0 96-43 96-96s-43-96-96-96-96 43-96 96 43 96 96 96zM640 460.8c123.8 0 224 100.2 224 224s-100.2 224-224 224-224-100.2-224-224 100.2-224 224-224zM640 844.8c88.2 0 160-71.8 160-160s-71.8-160-160-160-160 71.8-160 160 71.8 160 160 160zM1128 460.8h-80c-30.4 0-58.6-9.6-82.2-25.8 18.8-12.8 35.8-27.8 50.8-44.8 9.8 4.2 20.4 6.6 31.4 6.6h80c48.4 0 88-43 88-96 0-17.6 14.4-32 32-32s32 14.4 32 32c0 88.2-68.2 160-152 160zM192 524.8c88.4 0 160 71.6 160 160s-71.6 160-160 160-160-71.6-160-160 71.6-160 160-160zM192 780.8c53 0 96-43 96-96s-43-96-96-96-96 43-96 96 43 96 96 96zM800.2 420.8c-66.8 0-83.4-24-160.2-24s-93.4 24-160.2 24c-72.6 0-143.2-32.4-184.6-93.8-24.8-36.8-39.2-81-39.2-128.6v-89.6c0-53 43-96 96-96h576c53 0 96 43 96 96v89.6c0 47.6-14.4 91.8-39.2 128.6-41.4 61.4-112 93.8-184.6 93.8zM960 108.8c0-17.6-14.4-32-32-32h-576c-17.6 0-32 14.4-32 32v89.6c0 33.2 9.8 65.4 28.2 92.8 27.6 41 76.8 65.6 131.4 65.6 54.8 0 74.4-24 160.4-24s105.6 24 160.2 24c54.6 0 103.8-24.6 131.4-65.6 18.4-27.4 28.2-59.6 28.2-92.8v-89.6zM314.2 435c-23.8 16.2-52 25.8-82.2 25.8h-80c-83.8 0-152-71.8-152-160 0-17.6 14.4-32 32-32s32 14.4 32 32c0 53 39.6 96 88 96h80c11 0 21.6-2.4 31.4-6.6 15 17 32.2 32 50.8 44.8z" />
<glyph unicode="&#xe94f;" glyph-name="users-cog" horiz-adv-x="1280" d="M574.8 471.6c5.8 20.8 13 40.8 21.8 60-67.2 19-116.8 80.2-116.8 153.4 0 88.2 71.8 160 160 160 73.2 0 134.2-49.6 153.4-116.8 19.2 8.8 39.2 16.2 60 21.8-28 91.6-112.4 158.8-213.2 158.8-123.8 0-224-100.2-224-224 0-100.8 67.2-185.2 158.8-213.2zM192 524.8c88.4 0 160 71.6 160 160s-71.6 160-160 160-160-71.6-160-160 71.6-160 160-160zM192 780.8c53 0 96-43 96-96s-43-96-96-96-96 43-96 96 43 96 96 96zM314.2 435c-23.8 16.2-52 25.8-82.2 25.8h-80c-83.8 0-152-71.8-152-160 0-17.6 14.4-32 32-32s32 14.4 32 32c0 53 39.6 96 88 96h80c11 0 21.6-2.4 31.4-6.6 15 17 32.2 32 50.8 44.8zM352 76.8c-17.6 0-32 14.4-32 32v89.6c0 33.2 9.8 65.4 28.2 92.8 27.6 41 76.8 65.6 131.4 65.6 28.6 0 37.6-4.8 81.4-14.4-0.4 7.6-2.8 26.8 1.2 65.2-32.6 8.6-52.8 13.2-82.6 13.2-72.6 0-143.2-32.4-184.6-93.8-24.8-36.8-39.2-81-39.2-128.6v-89.6c0-53 43-96 96-96h418c-32 17.2-61.2 39-87 64h-330.8zM960 493.8c-71.2 0-129-58-129-129s57.8-129 129-129 129 58 129 129-57.8 129-129 129zM960 299.8c-35.8 0-65 29.2-65 65s29.2 65 65 65 65-29.2 65-65-29.2-65-65-65zM1256.6 320.2l-33 19c1.6 17 1.6 34.2 0 51.2l33.2 19c19 11 27.6 33.4 21 54-14.4 46.8-39.8 90.8-73.4 127-14.8 16.2-38.6 19.8-57.6 8.8l-33-19c-14 10-28.8 18.6-44.4 25.6v38c0 22-15 40.6-36.4 45.4-47.8 10.8-98.6 10.8-146.6 0-21.4-4.8-36.4-23.6-36.4-45.4v-38c-15.6-7-30.6-15.6-44.4-25.6l-33 19c-19 11-42.6 7.4-57.4-8.8-33.6-36.2-58.8-80.2-73.4-126.8-6.6-20.8 2.4-43.6 21.2-54.4l33-19c-1.6-17-1.6-34.2 0-51.2l-33.2-19c-18.6-10.8-27.6-33.8-21-54.2 14.6-46.8 39.8-90.8 73.4-127 14.8-16 38.4-19.6 57.6-8.8l33 19c14-10 28.8-18.6 44.4-25.6v-38c0-22 15-40.6 36.4-45.4 24-5.4 48.6-8 73.2-8s49.4 2.6 73.2 8c21.4 4.8 36.4 23.6 36.4 45.4v38c15.6 7 30.4 15.6 44.4 25.6l33-19c18.8-10.8 42.6-7.2 57.4 8.8 33.6 36.2 58.8 80.2 73.4 126.8 6.8 20.8-2.2 43.8-21 54.6zM1153.4 305.8l58.8-34c-10.6-28.6-26-55.6-45.6-79l-58.8 34c-42.8-36.6-49-40.2-102.2-59v-68c-30.2-5.2-61.2-5.2-91.2 0v68c-53.8 19-60.4 23.4-102.2 59l-58.8-34c-19.6 23.6-35.2 50.4-45.6 79l58.8 34c-9.8 53.6-10.4 61.2 0 118l-58.8 34c10.4 28.6 26 55.4 45.6 79l58.8-34c42.8 36.6 49 40.2 102.2 59v68c30.2 5 61.4 5 91.2 0v-68c53.6-19 60.4-23.2 102.2-59l58.8 34c19.6-23.6 35.2-50.4 45.6-79l-58.8-34c9.8-53.6 10.4-61.2 0-118z" />
<glyph unicode="&#xe950;" glyph-name="window-restore" d="M928 972.8h-640c-53 0-96-43-96-96v-96h-96c-53 0-96-43-96-96v-640c0-53 43-96 96-96h640c53 0 96 43 96 96v96h96c53 0 96 43 96 96v640c0 53-43 96-96 96zM64 684.8c0 17.6 14.4 32 32 32h640c17.6 0 32-14.4 32-32v-160h-704v160zM768 44.8c0-17.6-14.4-32-32-32h-640c-17.6 0-32 14.4-32 32v416h704v-416zM960 236.8c0-17.6-14.4-32-32-32h-96v480c0 53-43 96-96 96h-480v96c0 17.6 14.4 32 32 32h640c17.6 0 32-14.4 32-32v-640z" />
<glyph unicode="&#xe951;" glyph-name="wrench" d="M1014.84 743.82c-4.68 18.94-19.32 33.96-38.12 39.22-18.94 5.22-39.3 0-53.3-13.96l-127.74-127.74-88.5 14.72-14.76 88.48 127.74 127.74c13.88 13.84 19.24 34.18 14 53.080-5.24 18.94-20.38 33.66-39.5 38.4-103.46 25.66-210.76-4.040-286.38-79.56-75.68-75.74-104.42-185.040-77.24-289.4l-386.66-386.58c-59.18-59.26-59.18-155.66 0-214.9 28.7-28.7 66.88-44.52 107.5-44.52s78.74 15.82 107.42 44.52l386.28 386.22c104.060-27.46 213.6 1.44 289.78 77.64 75.62 75.62 105.36 182.78 79.48 286.64zM890.12 502.42c-63.74-63.62-156.86-85.26-243.54-56.46l-18.76 6.28-413.76-413.68c-33.24-33.24-91.18-33.24-124.42 0-34.24 34.28-34.24 90.12 0 124.42l414.020 413.96-6.18 18.68c-28.62 86.9-7.12 180.12 56.060 243.34 45.42 45.44 105.34 69.84 167.58 69.84 13.74 0 27.62-1.18 41.44-3.62l-138.62-138.7 27.62-166.040 166.12-27.64 138.6 138.7c13.44-76.5-10.68-153.58-66.16-209.080zM160 140.8c-17.68 0-32-14.32-32-32s14.32-32 32-32 32 14.32 32 32-14.32 32-32 32z" />
<glyph unicode="&#xe952;" glyph-name="calendar-day" horiz-adv-x="896" d="M800 844.8h-96v112c0 8.8-7.2 16-16 16h-32c-8.8 0-16-7.2-16-16v-112h-384v112c0 8.8-7.2 16-16 16h-32c-8.8 0-16-7.2-16-16v-112h-96c-53 0-96-43-96-96v-704c0-53 43-96 96-96h704c53 0 96 43 96 96v704c0 53-43 96-96 96zM832 44.8c0-17.6-14.4-32-32-32h-704c-17.6 0-32 14.4-32 32v544h768v-544zM832 652.8h-768v96c0 17.6 14.4 32 32 32h704c17.6 0 32-14.4 32-32v-96zM224 204.8h192c17.6 0 32 14.4 32 32v192c0 17.6-14.4 32-32 32h-192c-17.6 0-32-14.4-32-32v-192c0-17.6 14.4-32 32-32zM256 396.8h128v-128h-128v128z" />
<glyph unicode="&#xe953;" glyph-name="desktop" horiz-adv-x="1152" d="M1056 972.8h-960c-53 0-96-43-96-96v-576c0-53 43-96 96-96h960c53 0 96 43 96 96v576c0 53-43 96-96 96zM1044 300.8h-936c-6.6 0-12 5.4-12 12v552c0 6.6 5.4 12 12 12h936c6.6 0 12-5.4 12-12v-552c0-6.6-5.4-12-12-12zM960-3.2c0-26.6-21.4-48-48-48h-672c-26.6 0-48 21.4-48 48s21.4 48 48 48h197.4l37.2 111.6c3.2 9.8 12.4 16.4 22.8 16.4h157.4c10.4 0 19.6-6.6 22.8-16.4l37.2-111.6h197.2c26.6 0 48-21.4 48-48z" />
<glyph unicode="&#xe954;" glyph-name="presentation-show" horiz-adv-x="1280" d="M16 972.8c-8.84 0-16-7.179-16-16.039v-32.082c0-8.86 7.16-16.039 16-16.039h48v-575.559c0-35.38 28.68-64.18 64-64.18h416v-98.262l-171.32-171.781c-6.24-6.26-6.24-16.42 0-22.68l22.621-22.68c6.241-6.261 16.38-6.261 22.621 0l158.078 158.48 158.059-158.48c6.241-6.261 16.38-6.261 22.621 0l22.621 22.68c6.24 6.26 6.24 16.42 0 22.68l-171.301 171.781v98.133c-22.769 18.961-43.429 40.44-61.563 64.027h-418.438v576h896v-183.75c22.114-5.632 43.511-13.125 64-22.332v205.902h48c8.84 0 16 7.179 16 16.039v32.102c0 8.86-7.16 16.039-16 16.039zM1269.663 468.846c-69.064 120.468-197.872 200.984-344.624 200.984-146.812 0-275.592-80.572-344.624-200.982-10.856-18.932-10.856-42.432 0-61.366 69.064-120.466 197.87-200.98 344.624-200.98 146.812 0 275.592 80.572 344.624 200.982 10.856 18.932 10.856 42.43 0 61.364zM925.041 266.934c-125.618 0-235.288 68.87-293.968 171.23 54.086 94.344 151.49 160.24 264.77 169.98 48.048-20.368 51.414-57.768 51.4-77.112-0.040-56.856-46.788-80.948-84.592-78.508-59.36 3.836-84.592 67.568-84.592 106.508v0.052c-12.502-24.028-19.6-51.476-19.6-80.632 0-94.568 74.582-171.23 166.582-171.23s166.582 76.662 166.582 171.23c0 39.068-12.74 75.076-34.168 103.89 68.102-29.15 124.818-80.102 161.556-144.18-58.682-102.36-168.352-171.23-293.97-171.23z" />
<glyph unicode="&#xe955;" glyph-name="file-import" d="M995.8 776.84l-167.76 167.76c-18 18-42.4 28.2-67.78 28.2h-408.28c-52.98-0.2-95.98-43.2-95.98-96.18v-479.82h-240c-8.84 0-16-7.16-16-16v-32c0-8.84 7.16-16 16-16h496v-105.34c0-21.96 12.76-41.1 33.38-49.94 29.86-12.9 53.76 3.22 61.76 10.78l143.44 136.24c11.24 10.66 17.44 24.96 17.44 40.24s-6.18 29.6-17.38 40.22l-143.56 136.32c-16.56 15.6-40.82 19.76-61.68 10.76-20.62-8.84-33.38-27.96-33.38-49.94v-105.34h-192.020v479.82c0 17.6 14.4 32.18 32 32.18h352.080v-208.14c0-26.6 21.4-47.86 48-47.86h207.96v-608.020c0-17.6-14.4-32-32-32h-576.060c-17.6 0-32 14.4-32 32v224.020h-63.98v-224.020c0-52.98 43-95.98 95.98-95.98h576.040c52.98 0 95.98 43 95.98 95.98v664.080c0 25.38-10.2 49.98-28.2 67.98zM576 482.56l124-117.76-124-117.76v235.52zM768.060 716.66v190.96c5.6-1.4 10.6-4.2 14.8-8.4l167.76-167.76c4.2-4.2 7-9.2 8.4-14.8h-190.96z" />
<glyph unicode="&#xe956;" glyph-name="angle-up" horiz-adv-x="640" d="M337 644.4l296-293.6c9.4-9.4 9.4-24.6 0-34l-39.6-39.6c-9.4-9.4-24.6-9.4-34 0l-239.4 237-239.4-237c-9.4-9.4-24.6-9.4-34 0l-39.6 39.6c-9.4 9.4-9.4 24.6 0 34l296 293.6c9.4 9.4 24.6 9.4 34 0z" />
<glyph unicode="&#xe957;" glyph-name="calendar-star" horiz-adv-x="896" d="M334 310l-18.8-109.2c-3.4-19.8 17.4-34.4 34.8-25.2l97.8 51.6 97.8-51.6c17.4-9.2 38.2 5.6 34.8 25.2l-18.8 109.2 79.2 77.2c14.2 13.8 6.4 38-13.2 41l-109.4 16-49 99.2c-8.8 17.6-34.2 18-43 0l-49-99.2-109.4-16c-19.6-2.8-27.4-27-13.2-41l79.4-77.2zM800 844.8h-96v96c0 17.6-14.4 32-32 32h-64c-17.6 0-32-14.4-32-32v-96h-256v96c0 17.6-14.4 32-32 32h-64c-17.6 0-32-14.4-32-32v-96h-96c-53 0-96-43-96-96v-704c0-53 43-96 96-96h704c53 0 96 43 96 96v704c0 53-43 96-96 96zM800 56.8c0-6.6-5.4-12-12-12h-680c-6.6 0-12 5.4-12 12v596h704v-596z" />
<glyph unicode="&#xe958;" glyph-name="file-im-export" horiz-adv-x="1234" d="M113.535 456.7v-411.92c0-52.98 43-95.98 95.98-95.98h576.040c52.98 0 95.98 43 95.98 95.98v124.020h-63.98v-124.020c0-17.6-14.4-32-32-32h-576.040c-17.6 0-32 14.4-32 32v411.92zM177.515 556.66v319.96c0 17.6 14.4 32.18 32 32.18h352.080v-208.14c0-26.6 21.4-47.86 48-47.86h207.96v-380h-368.020c-4.42 0-8.42-1.79-11.315-4.685s-4.685-6.895-4.685-11.315v-32c0-4.42 1.79-8.438 4.685-11.342s6.895-4.658 11.315-4.658h528v-105.34c0-10.98 3.19-21.255 8.957-29.89s14.112-15.63 24.422-20.050c14.93-6.45 28.37-5.645 39.077-2.282s18.682 9.282 22.682 13.062l143.44 136.24c5.62 5.33 9.98 11.57 12.935 18.387s4.505 14.212 4.505 21.852c0 7.64-1.55 15.045-4.5 21.867s-7.3 13.062-12.9 18.372l-143.56 136.32c-8.28 7.8-18.485 12.74-29.227 14.605s-22.022 0.655-32.452-3.845c-10.31-4.42-18.655-11.41-24.422-20.042s-8.957-18.907-8.957-29.897v-105.36h-96v436.060c0 25.4-10.2 50-28.2 67.98l-167.76 167.76c-18 18-42.4 28.2-67.78 28.2h-408.28c-52.98-0.2-95.98-43.2-95.98-96.18v-319.96zM625.595 716.66v190.96c5.6-1.4 10.6-4.2 14.8-8.4l167.76-167.76c4.2-4.2 7-9.2 8.4-14.8zM1041.535 123.040v235.52l124-117.76-62-58.88zM16 560.063c-8.84 0-16-7.16-16-16v-32c0-8.84 7.16-16 16-16h320v-105.34c0-21.96 12.76-41.1 33.38-49.94 29.86-12.9 53.76 3.22 61.76 10.78l143.44 136.24c11.24 10.66 17.44 24.96 17.44 40.24s-6.18 29.6-17.38 40.22l-143.56 136.32c-16.56 15.6-40.82 19.76-61.68 10.76-20.62-8.84-33.38-27.96-33.38-49.94v-105.34c-218.289-1.928-79.464 0-320.020 0zM400 645.823l124-117.76-124-117.76z" />
<glyph unicode="&#xe959;" glyph-name="download-hide" horiz-adv-x="1152" d="M109.941 973.382c-7.818-0.123-15.523-3.845-20.789-10.891l-16.941-22.672c-9.378-12.526-7.479-30.807 4.223-40.828 353.787-293.87 717.669-604.104 1067.586-892.508 5.121 11.741 7.98 24.694 7.98 38.316v256c0 53-43 96-96 96h-184.199l92.199 92.199c60.2 60.2 17.599 163.801-67.801 163.801h-128v224c0 53-43 96-96 96h-192c-53 0-96-43-96-96v-124.797l-256.91 215.008c-5.119 4.384-11.267 6.467-17.348 6.371zM480 876.8h192v-320h224l-126.91-126.91-289.090 241.941zM256.199 652.8c-85.2 0-128.401-103.401-67.801-163.801l92.203-92.199h-184.602c-53 0-96-43-96-96v-256c0-53 43-96 96-96h960c18.551 0 35.865 5.281 50.551 14.402l-98.98 81.598h-911.57v256h280.199l131.801-131.801c37.6-37.6 98.201-37.4 135.801 0l90.652 92.039-72.625 61.59-85.828-85.828-320 320h111.465l-106.391 91.43zM923.344 300.8h132.656v-111.020z" />
<glyph unicode="&#xe95a;" glyph-name="sign-out-web" d="M434.2 268.8c-17.6 0-32 14.4-32 32v288h-187.8c-14.2 0-21.4 17.2-11.4 27.2l286.2 283.2c12.6 12.6 32.8 12.6 45.4 0l286.2-283.2c10-10 3-27.2-11.4-27.2h-187.8v-288c0-17.6-14.4-32-32-32h-155.4zM434.2 204.8h155.4c53 0 96 43 96 96v224h123.8c71 0 107 86 56.6 136.4l-286 283.4c-37.6 37.6-98.4 37.6-136 0l-286.2-283.4c-50.2-50.2-14.6-136.4 56.6-136.4h123.8v-224c0-53 43.2-96 96-96zM224-51.2h576c53 0 96 43 96 96v264c0 13.2-10.8 24-24 24h-16c-13.2 0-24-10.8-24-24v-264c0-17.6-14.4-32-32-32h-576c-17.6 0-32 14.4-32 32v264c0 13.2-10.8 24-24 24h-16c-13.2 0-24-10.8-24-24v-264c0-53 43-96 96-96z" />
<glyph unicode="&#xe95b;" glyph-name="sign-out-return-alt" d="M0 128.755v671.728c0 61.808 50.221 111.955 112.121 111.955h308.332c15.417 0 28.030-12.595 28.030-27.989v-18.659c0-15.394-12.614-27.989-28.030-27.989h-308.332c-20.555 0-37.374-16.793-37.374-37.318v-671.728c0-20.525 16.818-37.318 37.374-37.318h308.332c15.417 0 28.030-12.595 28.030-27.989v-18.659c0-15.394-12.614-27.989-28.030-27.989h-308.332c-61.9 0-112.121 50.146-112.121 111.955zM979.537 582.662l-137.706-137.502c-10.855-10.839-29.336-3.060-29.336 12.133l-0.010 103.177h-543.94c-9.49 0-17.185 7.683-17.185 17.159v34.318c0 9.476 7.694 17.159 17.185 17.159h543.94l0.014 103.187c0.001 15.276 18.544 22.91 29.336 12.133l137.7-137.496c6.712-6.701 6.713-17.567 0.001-24.267zM256.395 308.099l137.7-137.496c10.792-10.776 29.334-3.143 29.336 12.133l0.014 103.187h543.941c9.49 0 17.185 7.683 17.185 17.159v34.318c0 9.478-7.694 17.159-17.185 17.159h-543.94l-0.010 103.175c0 15.193-18.481 22.973-29.336 12.133l-137.706-137.502c-6.712-6.699-6.711-17.565 0-24.266z" />
<glyph unicode="&#xe95c;" glyph-name="bolt" horiz-adv-x="768" d="M755.6 637c-16.4 28.6-46.2 45.8-79.2 45.8h-188.8l57.4 175c7.4 27.6 1.6 56.6-15.8 79.4-17.6 22.6-44.2 35.6-72.8 35.6h-261c-45.6 0-84.6-34.2-89.6-74.2l-104.8-424.4c-3.8-27.6 4.4-55.4 22.6-76.4s44.6-33 72.4-33h196.2l-69.8-303.4c-6.4-27.4-0.2-55.8 17.2-77.8 17.4-22.2 43.6-34.8 71.8-34.8 32.6 0 63 17.6 77.6 43.2l366.4 553.4c16.8 28.6 16.8 63 0.2 91.6zM320.2 58l92.6 402.8h-317.8l100.4 416 255.2 1.8-95.6-291.8h313l-347.8-528.8z" />
<glyph unicode="&#xe95d;" glyph-name="copyright" d="M512 956.8c-273.934 0-496-222.066-496-496s222.066-496 496-496 496 222.066 496 496-222.066 496-496 496zM944 460.8c0-237.326-192.11-432-432-432-237.326 0-432 192.11-432 432 0 237.326 192.11 432 432 432 237.326 0 432-192.11 432-432zM720.948 258.068c-18.828-18.284-88.91-77.932-200.212-77.932-155.65 0-273.026 121.102-273.026 281.692 0 155.902 116.69 275.192 270.862 275.192 107.094 0 171.016-49.57 188.056-64.762 4.946-4.402 8.046-10.786 8.046-17.893 0-5.305-1.727-10.207-4.65-14.174l0.046 0.066-17.526-24.16c-8.068-11.122-23.754-13.158-34.406-4.658-17.842 14.244-67.018 47.376-138.124 47.376-108.64 0-188.322-83.582-188.322-196.262 0-116.418 81.582-204.208 189.764-204.208 79.076 0 133.044 44.148 147.702 57.68 10.136 9.362 26.108 8.216 34.846-2.478l18.828-23.068c7.938-9.722 7.128-23.656-1.884-32.41z" />
<glyph unicode="&#xe95e;" glyph-name="file-archive" horiz-adv-x="768" d="M739.882 776.918l-167.764 167.764c-17.373 17.373-41.372 28.118-67.882 28.118h-408.236c-53.020 0-96-42.98-96-96v-832c0-53.020 42.98-96 96-96h576c53.020 0 96 42.98 96 96v664.236c0 26.51-10.745 50.509-28.118 67.882v0zM512 907.818c5.851-1.475 10.883-4.406 14.862-8.39v0l167.764-167.764c3.983-3.98 6.914-9.011 8.343-14.642l0.047-0.22h-191.016v191.016zM704 44.8c0-17.674-14.328-32-32-32h-576c-17.672 0-32 14.326-32 32v832c0 17.674 14.328 32 32 32h159.428v-64h64v64h128.572v-208c0-26.51 21.49-48 48-48h208v-608zM384 780.8h-64v64h64v-64zM320 780.8v-64h-64v64h64zM320 652.8v-64h-64v64h64zM384 652.8h-64v64h64v-64zM364.324 460.8h-44.324v64h-64v-64l-38.898-194.486c-12.986-64.93 36.676-125.514 102.898-125.514 66.218 0 115.884 60.582 102.898 125.514l-35.038 175.192c-2.275 11.079-11.946 19.294-23.536 19.294 0 0 0 0 0 0v0zM320.54 192.654c-35.836 0-64.888 24.21-64.888 54.072 0 29.864 29.050 54.072 64.888 54.072s64.888-24.208 64.888-54.072c0-29.862-29.052-54.072-64.888-54.072zM384 524.8h-64v64h64v-64z" />
<glyph unicode="&#xe95f;" glyph-name="file-archive-alt" horiz-adv-x="768" d="M448 700.8v272h-127.2v-64h-64v64h-208.8c-26.6 0-48-21.4-48-48v-928c0-26.6 21.4-48 48-48h672c26.6 0 48 21.4 48 48v656h-272c-26.4 0-48 21.6-48 48zM191.8 908.8h64v-64h-64v64zM256.4 140.8c-66.4 0-116 60.8-102.8 125.8l39.2 194.2v64h64v64h-64v64h64v64h-64v64h64v64h64v-64h-64v-64h64v-64h-64v-64h64v-64h-64v-64h44.2c11.4 0 21.4-8.2 23.6-19.4l34.6-175.4c12.8-64.8-36.8-125.2-102.8-125.2zM321.8 246.8c0-29.8-29-54-64.8-54s-65 24-65 54c0 29.8 29 54 64.8 54s65-24.2 65-54zM768 729v-12.2h-256v256h12.2c12.8 0 25-5 34-14l195.8-196c9-9 14-21.2 14-33.8z" />
<glyph unicode="&#xe960;" glyph-name="envelope-alt" d="M1004.6 591.2c7.8 6.2 19.4 0.4 19.4-9.4v-409c0-53-43-96-96-96h-832c-53 0-96 43-96 96v408.8c0 10 11.4 15.6 19.4 9.4 44.8-34.8 104.2-79 308.2-227.2 42.2-30.8 113.4-95.6 184.4-95.2 71.4-0.6 144 65.6 184.6 95.2 204 148.2 263.2 192.6 308 227.4zM512 332.8c46.4-0.8 113.2 58.4 146.8 82.8 265.4 192.6 285.6 209.4 346.8 257.4 11.6 9 18.4 23 18.4 37.8v38c0 53-43 96-96 96h-832c-53 0-96-43-96-96v-38c0-14.8 6.8-28.6 18.4-37.8 61.2-47.8 81.4-64.8 346.8-257.4 33.6-24.4 100.4-83.6 146.8-82.8z" />
<glyph unicode="&#xe961;" glyph-name="copyright-alt" d="M512 956.8c-273.934 0-496-222.066-496-496s222.066-496 496-496 496 222.066 496 496-222.066 496-496 496zM746.268 263.294c-3.184-3.734-79.552-91.462-219.702-91.462-169.384 0-288.968 126.52-288.968 291.134 0 162.606 124.008 286.802 287.524 286.802 133.914 0 203.93-74.63 206.844-77.808 3.915-4.257 6.315-9.961 6.315-16.225 0-4.839-1.432-9.344-3.896-13.113l0.056 0.092-44.76-69.31c-8.098-12.534-25.548-14.702-36.468-4.59-0.466 0.428-53.058 47.76-123.76 47.76-92.232 0-147.832-67.15-147.832-152.164 0-79.204 51.028-159.384 148.554-159.384 77.394 0 130.56 56.676 131.088 57.25 10.264 11.13 28.118 10.066 37.016-2.106l49.094-67.144c2.89-3.916 4.626-8.838 4.626-14.166 0-5.955-2.169-11.404-5.759-15.599l0.027 0.033z" />
<glyph unicode="&#xe962;" glyph-name="poll-people" horiz-adv-x="1280" d="M291.6 189.4c17.6 22 28.4 49.4 28.4 79.4 0 70.6-57.4 128-128 128s-128-57.4-128-128c0-30.2 11-57.6 28.4-79.4-54.4-25.6-92.4-80.6-92.4-144.6v-35.2c0-33.6 27.2-60.8 60.8-60.8h262.4c33.6 0 60.8 27.2 60.8 60.8v35.2c0 64-38 119-92.4 144.6zM192 332.8c35.4 0 64-28.8 64-64s-28.6-64-64-64-64 28.8-64 64 28.6 64 64 64zM64 9.6v35.2c0 53 43 96 96 96h64c53 0 96-43 96-96l3.2-32-259.2-3.2zM291.6 765.4c17.6 22 28.4 49.4 28.4 79.4 0 70.6-57.4 128-128 128s-128-57.4-128-128c0-30.2 11-57.6 28.4-79.4-54.4-25.6-92.4-80.6-92.4-144.6v-35.2c0-33.6 27.2-60.8 60.8-60.8h262.4c33.6 0 60.8 27.2 60.8 60.8v35.2c0 64-38 119-92.4 144.6zM192 908.8c35.4 0 64-28.8 64-64s-28.6-64-64-64-64 28.8-64 64 28.6 64 64 64zM64 585.6v35.2c0 53 43 96 96 96h64c53 0 96-43 96-96l3.2-32-259.2-3.2zM1232 908.8h-736c-26.6 0-48-21.4-48-48v-224c0-26.6 21.4-48 48-48h736c26.6 0 48 21.4 48 48v224c0 26.6-21.4 48-48 48zM960 652.8h-448v192h448v-192zM1216 652.8h-192v192h192v-192zM1232 332.8h-736c-26.6 0-48-21.4-48-48v-224c0-26.6 21.4-48 48-48h736c26.6 0 48 21.4 48 48v224c0 26.6-21.4 48-48 48zM640 76.8h-128v192h128v-192zM1216 76.8h-512v192h512v-192z" />
<glyph unicode="&#xe963;" glyph-name="user-show" horiz-adv-x="1280" d="M448 972.8c-141.4 0-256-114.6-256-256s114.6-256 256-256c141.4 0 256 114.6 256 256s-114.6 256-256 256zM448 908.8c105.8 0 192-86.2 192-192s-86.2-192-192-192c-105.8 0-192 86.2-192 192s86.2 192 192 192zM268.801 396.8c-148.4 0-268.801-120.401-268.801-268.801v-83.199c0-53 43-96 96-96h652c0.022 0 0.044 0 0.066 0-46.423 21.514-66.035 31.755-106.828 64h-545.238c-17.6 0-32 14.4-32 32v83.199c0 113 91.801 204.801 204.801 204.801 39.2 0 78.199-32 179.199-32 34.106 0 61.096 3.674 83.48 8.516 29.342 34.744 56.406 64.349 95.691 87.352-2.649 0.078 2.696 0.133 0.027 0.133-57.4 0-84.999-32-179.199-32s-121.599 32-179.199 32zM1268.414 249.305c-69.063 120.468-197.871 200.983-344.623 200.983-146.813 0-275.591-80.571-344.623-200.983-10.855-18.933-10.855-42.431 0-61.365 69.064-120.467 197.871-200.981 344.623-200.981 146.813 0 275.591 80.571 344.623 200.983 10.855 18.933 10.855 42.43 0 61.363zM923.791 47.393c-125.618 0-235.287 68.871-293.969 171.23 54.087 94.344 151.489 160.239 264.771 169.98 48.049-20.368 51.413-57.767 51.4-77.112-0.040-56.856-46.789-80.949-84.593-78.507-59.36 3.835-84.593 67.567-84.593 106.507l0.001 0.053c-12.502-24.029-19.599-51.477-19.599-80.632 0-94.568 74.581-171.23 166.583-171.23s166.583 76.662 166.583 171.23c0 39.069-12.739 75.076-34.168 103.89 68.102-29.151 124.819-80.102 161.555-144.18-58.681-102.359-168.351-171.23-293.969-171.23z" />
<glyph unicode="&#xe964;" glyph-name="id-badge" horiz-adv-x="768" d="M640 972.8h-512c-70.6 0-128-57.4-128-128v-768c0-70.6 57.4-128 128-128h512c70.6 0 128 57.4 128 128v768c0 70.6-57.4 128-128 128zM704 76.8c0-35.2-28.8-64-64-64h-512c-35.2 0-64 28.8-64 64v768c0 35.2 28.8 64 64 64h512c35.2 0 64-28.8 64-64v-768zM288 780.8h192c17.6 0 32 14.4 32 32s-14.4 32-32 32h-192c-17.6 0-32-14.4-32-32s14.4-32 32-32zM384 364.8c88.4 0 160 71.6 160 160s-71.6 160-160 160-160-71.6-160-160 71.6-160 160-160zM384 620.8c53 0 96-43 96-96s-43-96-96-96-96 43-96 96 43 96 96 96zM477.6 332.8c-39 0-48.8-14-93.6-14s-54.6 14-93.6 14c-42.4 0-83.6-18.8-107.6-54.8-14.4-21.4-22.8-47.2-22.8-75v-78.2c0-8.8 7.2-16 16-16h32c8.8 0 16 7.2 16 16v78.2c0 28 18 65.8 66.4 65.8 24.8 0 41.6-14 93.6-14 51.8 0 68.6 14 93.6 14 48.6 0 66.4-37.8 66.4-65.8v-78.2c0-8.8 7.2-16 16-16h32c8.8 0 16 7.2 16 16v78.2c0 27.8-8.4 53.6-22.8 75-24.2 36-65.4 54.8-107.6 54.8z" />
<glyph unicode="&#xe965;" glyph-name="file-solid" horiz-adv-x="768" d="M448 700.8v272h-400c-26.6 0-48-21.4-48-48v-928c0-26.6 21.4-48 48-48h672c26.6 0 48 21.4 48 48v656h-272c-26.4 0-48 21.6-48 48zM576 228.8c0-13.2-10.8-24-24-24h-336c-13.2 0-24 10.8-24 24v16c0 13.2 10.8 24 24 24h336c13.2 0 24-10.8 24-24v-16zM576 356.8c0-13.2-10.8-24-24-24h-336c-13.2 0-24 10.8-24 24v16c0 13.2 10.8 24 24 24h336c13.2 0 24-10.8 24-24v-16zM576 500.8v-16c0-13.2-10.8-24-24-24h-336c-13.2 0-24 10.8-24 24v16c0 13.2 10.8 24 24 24h336c13.2 0 24-10.8 24-24zM768 729v-12.2h-256v256h12.2c12.8 0 25-5 34-14l195.8-196c9-9 14-21.2 14-33.8z" />
<glyph unicode="&#xe966;" glyph-name="check-solid" d="M347.796 93.992l-332.8 332.8c-19.994 19.994-19.994 52.412 0 72.408l72.406 72.408c19.994 19.996 52.414 19.996 72.408 0l224.19-224.188 480.19 480.188c19.994 19.994 52.414 19.994 72.408 0l72.406-72.408c19.994-19.994 19.994-52.412 0-72.408l-588.8-588.802c-19.996-19.994-52.414-19.994-72.408 0.002z" />
<glyph unicode="&#xe967;" glyph-name="graduation-cap" horiz-adv-x="1280" d="M1244.68 666.4l-557.88 171.4c-30.4 9.34-63.2 9.34-93.58 0l-557.9-171.4c-47.080-14.46-47.080-76.72 0-91.18l97.26-29.88c-21.34-26.38-34.46-58.56-35.76-93.8-19.26-11.040-32.82-30.96-32.82-54.74 0-21.56 11.36-39.7 27.72-51.3l-51.060-229.76c-4.44-19.98 10.76-38.94 31.22-38.94h112.22c20.48 0 35.68 18.96 31.24 38.94l-51.060 229.76c16.36 11.6 27.72 29.74 27.72 51.3 0 23.14-12.94 42.5-31.32 53.74 1.52 30.040 16.88 56.6 41.38 73.44l391.14-120.18c18.12-5.56 52.88-12.5 93.58 0l557.9 171.4c47.1 14.48 47.1 76.72 0 91.2zM705.58 342.62c-57.060-17.52-105.68-7.84-131.18 0l-290.040 89.1-28.36-226.92c0-70.7 171.92-128 384-128s384 57.3 384 128l-28.36 226.94-290.060-89.12z" />
<glyph unicode="&#xe968;" glyph-name="camera" d="M1024 684.8v-576c0-53-43-96-96-96h-832c-53 0-96 43-96 96v576c0 53 43 96 96 96h176l24.6 65.8c14 37.4 49.8 62.2 89.8 62.2h251c40 0 75.8-24.8 89.8-62.2l24.8-65.8h176c53 0 96-43 96-96zM752 396.8c0 132.4-107.6 240-240 240s-240-107.6-240-240 107.6-240 240-240 240 107.6 240 240zM688 396.8c0-97-79-176-176-176s-176 79-176 176 79 176 176 176 176-79 176-176z" />
<glyph unicode="&#xe969;" glyph-name="coins" d="M672 908.8c-97.2 0-185.2-18-249-46.8-1.8-0.8-103-42-103-113.2v-33.4c-167.8-7-320-69.4-320-158.6v-384c0-88.4 157.6-160 352-160s352 71.6 352 160v32.8c179.4 7.4 320 75.8 320 159.2v384c0 74-124.2 160-352 160zM640 172.8c0-27.8-101-96-288-96s-288 68.2-288 96v100.2c63.6-41.2 168.8-68.2 288-68.2s224.4 27 288 68.2v-100.2zM640 364.8c0-27.8-101-96-288-96s-288 68.2-288 96v100.2c63.6-41.2 168.8-68.2 288-68.2s224.4 27 288 68.2v-100.2zM352 460.8c-162 0-293.4 43-293.4 96s131.4 96 293.4 96 293.4-43 293.4-96-131.4-96-293.4-96zM960 364.8c0-26.2-90-87.2-256-94.6v128.2c105.6 4.4 198.2 29.2 256 66.6v-100.2zM960 556.8c0-26.2-90.2-86.8-256-94.4v94.4c0 11.2-3.4 22-8.2 32.6 109.2 3.4 204.8 29 264.2 67.6v-100.2zM672 652.8c-14.6 0-28 1-41.8 1.8-73.8 43.4-170 56.4-231.2 60-12.6 10.6-20.2 22-20.2 34.2 0 53 131.4 96 293.4 96s293.4-43 293.4-96-131.6-96-293.6-96z" />
<glyph unicode="&#xe96a;" glyph-name="money-bill-alt" horiz-adv-x="1280" d="M1216 844.8h-1152c-35.34 0-64-28.66-64-64v-640c0-35.34 28.66-64 64-64h1152c35.34 0 64 28.66 64 64v640c0 35.34-28.66 64-64 64zM64 780.8h128c0-70.6-57.44-128-128-128v128zM1216 332.8c-105.88 0-192-86.12-192-192h64c0 70.6 57.44 128 128 128v-128h-1152v128c70.56 0 128-57.4 128-128h64c0 105.88-86.12 192-192 192v256c105.88 0 192 86.12 192 192h768c0-105.88 86.12-192 192-192v-256zM1216 652.8c-70.56 0-128 57.4-128 128h128v-128zM640 716.8c-123.72 0-224-114.6-224-256 0-141.36 100.28-256 224-256 123.66 0 224 114.58 224 256 0 141.4-100.28 256-224 256zM640 268.8c-88.22 0-160 86.14-160 192 0 105.88 71.78 192 160 192s160-86.12 160-192c0-105.86-71.78-192-160-192zM704 396.8h-32v176c0 8.84-7.16 16-16 16h-27.16c-9.48 0-18.74-2.8-26.62-8.060l-30.66-20.44c-4.322-2.907-7.127-7.78-7.127-13.308 0-3.307 1.004-6.379 2.724-8.929l-0.036 0.057 17.76-26.62c2.907-4.322 7.78-7.127 13.308-7.127 3.307 0 6.379 1.004 8.929 2.724l-0.057-0.036 0.94 0.62v-110.88h-32c-8.84 0-16-7.16-16-16v-32c0-8.84 7.16-16 16-16h128c8.84 0 16 7.16 16 16v32c0 8.84-7.16 16-16 16z" />
<glyph unicode="&#xe96b;" glyph-name="payments" horiz-adv-x="1280" d="M64 968.8c-35.34 0-64-28.66-64-64v-640c0-35.34 28.66-64 64-64l269.965-0.066v64.066h-77.965c0 105.88-86.12 192-192 192v256c105.88 0 192 86.12 192 192h768c0-105.88 86.12-192 192-192v-46.766c30.629-23.238 51.86-30.843 64.133-65.359 0 0-0.133-12.39-0.133 304.125 0 35.34-28.66 64-64 64zM64 904.8h128c0-70.6-57.44-128-128-128zM1088 904.8h128v-128c-70.56 0-128 57.4-128 128zM640 840.8c-123.72 0-224-114.6-224-256 0-28.931 4.207-56.741 11.949-82.68 16.46 10.966 36.267 20.66 58.477 28.945-4.154 17.064-6.426 35.083-6.426 53.734 0 105.88 71.78 192 160 192 52.338 0 98.888-30.313 128.098-77.078 19.239 7.211 40.427 13.407 63.176 18.383-39.345 73.586-110.286 122.695-191.273 122.695zM628.84 712.8c-9.48 0-18.741-2.799-26.621-8.059l-30.66-20.441c-7.353-4.897-9.341-14.83-4.438-22.18l17.758-26.621c4.897-7.353 14.83-9.341 22.18-4.438l0.941 0.617v-72.609c2.561 0.299 5.142 0.561 7.719 0.832 2.979 33.434 31.299 58.773 55.41 74.531 0.296 0.422 0.569 0.859 0.871 1.277v61.090c0 8.84-7.16 16-16 16zM64 392.8c70.56 0 128-57.4 128-128h-128zM972.271 671.851c-85.256 0-162.442-15.734-218.403-40.908-1.579-0.699-90.343-36.712-90.343-98.947v-29.195c-147.18-6.119-280.678-60.662-280.678-138.631v-335.651c0-77.27 138.234-139.855 308.746-139.855s308.746 62.585 308.746 139.855v28.67c157.355 6.468 280.678 66.256 280.678 139.155v335.651c0 64.683-108.938 139.855-308.746 139.855zM944.203 28.519c0-24.3-88.589-83.913-252.61-83.913s-252.61 59.613-252.61 83.913v87.584c55.785-36.013 148.058-59.613 252.61-59.613s196.825 23.6 252.61 59.613zM944.203 196.345c0-24.3-88.589-83.913-252.61-83.913s-252.61 59.613-252.61 83.913v87.584c55.785-36.013 148.058-59.613 252.61-59.613s196.825 23.6 252.61 59.613zM691.593 280.258c-142.093 0-257.347 37.586-257.347 83.913s115.253 83.913 257.347 83.913c142.093 0 257.347-37.586 257.347-83.913s-115.253-83.913-257.347-83.913zM1224.881 196.345c0-22.901-78.941-76.221-224.542-82.689v112.059c92.624 3.846 173.845 25.523 224.542 58.215zM1224.881 364.17c0-22.901-79.116-75.871-224.542-82.514v82.514c0 9.79-2.982 19.23-7.192 28.495 95.781 2.972 179.634 25.349 231.735 59.089zM972.271 448.083c-12.806 0-24.559 0.874-36.664 1.573-64.731 37.936-149.11 49.299-202.79 52.446-11.052 9.265-17.718 19.23-17.718 29.894 0 46.327 115.253 83.913 257.347 83.913s257.347-37.586 257.347-83.913c0-46.327-115.429-83.913-257.522-83.913z" />
<glyph unicode="&#xe96c;" glyph-name="sign-in-alt" d="M64 538.6c0 17.6 14.4 32 32 32h288v187.8c0 14.2 17.2 21.4 27.2 11.4l283.2-286.2c12.6-12.6 12.6-32.8 0-45.4l-283.2-286.2c-10-10-27.2-3-27.2 11.4v187.8h-288c-17.6 0-32 14.4-32 32v155.4zM0 538.6v-155.4c0-53 43-96 96-96h224v-123.8c0-71 86-107 136.4-56.6l283.4 286c37.6 37.6 37.6 98.4 0 136l-283.4 286.2c-50.2 50.2-136.4 14.6-136.4-56.6v-123.8h-224c-53 0-96-43.2-96-96zM1024 172.8v576c0 53-43 96-96 96h-264c-13.2 0-24-10.8-24-24v-16c0-13.2 10.8-24 24-24h264c17.6 0 32-14.4 32-32v-576c0-17.6-14.4-32-32-32h-264c-13.2 0-24-10.8-24-24v-16c0-13.2 10.8-24 24-24h264c53 0 96 43 96 96z" />
<glyph unicode="&#xe96d;" glyph-name="list-alt" horiz-adv-x="1280" d="M291.6 189.4c17.6 22 28.4 49.4 28.4 79.4 0 70.6-57.4 128-128 128s-128-57.4-128-128c0-30.2 11-57.6 28.4-79.4-54.4-25.6-92.4-80.6-92.4-144.6v-35.2c0-33.6 27.2-60.8 60.8-60.8h262.4c33.6 0 60.8 27.2 60.8 60.8v35.2c0 64-38 119-92.4 144.6zM192 332.8c35.4 0 64-28.8 64-64s-28.6-64-64-64c-35.4 0-64 28.8-64 64s28.6 64 64 64zM64 9.6v35.2c0 53 43 96 96 96h64c53 0 96-43 96-96l3.2-32zM291.6 765.4c17.6 22 28.4 49.4 28.4 79.4 0 70.6-57.4 128-128 128s-128-57.4-128-128c0-30.2 11-57.6 28.4-79.4-54.4-25.6-92.4-80.6-92.4-144.6v-35.2c0-33.6 27.2-60.8 60.8-60.8h262.4c33.6 0 60.8 27.2 60.8 60.8v35.2c0 64-38 119-92.4 144.6zM192 908.8c35.4 0 64-28.8 64-64s-28.6-64-64-64c-35.4 0-64 28.8-64 64s28.6 64 64 64zM64 585.6v35.2c0 53 43 96 96 96h64c53 0 96-43 96-96l3.2-32zM1232 828.8h-736c-26.6 0-48-21.4-48-48v-144c0-26.6 21.4-48 48-48h736c26.6 0 48 21.4 48 48v144c0 26.6-21.4 48-48 48zM640 652.8h-128v112h128zM1216 652.8h-512v112h512zM1232 252.8h-736c-26.6 0-48-21.4-48-48v-144c0-26.6 21.4-48 48-48h736c26.6 0 48 21.4 48 48v144c0 26.6-21.4 48-48 48zM640 76.8h-128v112h128zM1216 76.8h-512v112h512z" />
<glyph unicode="&#xe96e;" glyph-name="caret-left-disabled" horiz-adv-x="448" d="M448 236.896v447.79c0 85.276-103.462 128.302-163.882 67.882l-224-223.886c-37.49-37.49-37.492-98.274 0-135.764l224-223.904c60.298-60.298 163.882-17.564 163.882 67.882zM128 460.8l224 224v-448l-224 224z" />
<glyph unicode="&#xe96f;" glyph-name="caret-right-disabled" horiz-adv-x="448" d="M0 684.704v-447.79c0-85.276 103.462-128.302 163.882-67.882l224 223.886c37.49 37.49 37.492 98.274 0 135.764l-224 223.904c-60.298 60.298-163.882 17.564-163.882-67.882zM320 460.8l-224-224v448l224-224z" />
</font>
</defs>
</svg>
